Жалобы на работу трекера ! прошу сюда :)

Богиня смерти / Si Shen Shao Nu / Gloomy Salad Days [20/20] (Zero Chou) [2010 г., мелодрама, мистика, HDTVRip] [720p] VO GREEN TEA

Страницы :  1, 2  След.

Ответить на тему
 
Автор Сообщение

Klёпa ®

Стаж: 3 года 2 месяца

Сообщений: 906

Пост 02-Мар-2014 20:33

[Цитировать]

Богиня смерти (Мрачные дни юности)
Si Shen Shao Nu / Gloomy Salad Days (Death Girl)

Год выпуска: 2010
Страна: Тайвань
Жанр: Мелодрама, мистика,
Продолжительность: 20 серий по ~45 мин.
Серий: 20/20-Озвучивание: 1-14 серии Ирина Битрих; 15-20 серии Светлана Дмитриева
Сэмпл: http://yadi.sk/d/_bLtneJnJpMwA-Режиссёр: Зеро Чоу (Zero Chou / 周美玲)
В ролях:
Аарон Янь (Aaron Yan / 炎亞綸) - Шэнь Ци / Гао Чао
Рина Фан (Serena Fang / 房思瑜) - Ду (Богиня смерти) / Ду Хэ
Ван Цзы (Wang Zi / Prince / 王子) - Хуан Хэ
Мао Ди (Mao Di / Modi / 毛弟) - А Пан
Сяо Мань (Xiao Man / 小蠻) - Пэй Пэй
Тан Чжэнь Ган (Tang Zhen Gang / 唐振刚) - А Го (брат Сяо Цзю)
Джей Ши (Jay Shih / 是元介) - Ли Цян
Крис Шэнь (Kris Shen / 沈建宏) - Сяо Тан
Ао Цюань (Ao Quan / 敖犬) - А Цзе
Дженни Вэнь (Jenny Wen / 溫貞菱) - Сяо Цзю
А Бэнь (Ah Ben / 阿本) - Хэ Вэй Лунь / Сяо Лунь
и др.
-
Описание: Злость, бессилие, отчаяние: твоя жизнь рушится, но никто не поможет. Тогда и рождается безумная надежда. Безумная, потому что толкает тебя на сделку с проводницей в забвение. «Девочка-смерть» - она поможет тебе в обмен на ещё один камень в свой мост между жизнью и смертью, которым тебе и предстоит стать. Но прежде чем согласиться, подумай, ведь в обмен на помощь, ты можешь потерять что-то гораздо более важное, чем жизнь – свою душу...
Шен Ци подошёл настолько близко к мосту, что видит и проводницу, и ведомых ею. Он становится свидетелем многих сделок, но не бежит. Его завораживает то, что он видит. И кто знает, может единственным ответом на вопросы жизни и смерти станет... любовь?-Доп.информация:
Озвучивается при поддержке зрителей GREEN TEA
Перевод: ФСГ "Томато"
Перевод:с 12 серии ФСГ "Dream Subs"
Работа со звуком: 1-8 серии Ольга Гринтиева; 9-17 серии Альберт Мингалеев; 18-20 серии Екатерина Юрьева
Оформление постера: Елена Горборукова-Качество видео: HDTVRip
Хардсаб: есть (китайский)
Формат: AVI
Видео кодек: H264
Аудио кодек: MP3
Видео: 1280x720, 3000 Кбит/с, 29.97 fps
Аудио: 192 Кбит/с, 48 kHz, 2 канала
ОСТ к дораме Богиня смерти
!!! Альтернативная раздача: 360p (AVI, XviD)
Внимание!!!
1-11 серии замена видео!
Папка переименована в [GREEN TEA] Богиня смерти (720p)

MediaInfo

Код:
Format                                   : AVI
Format/Info                              : Audio Video Interleave
File size                                : 1.11 GiB
Duration                                 : 50mn 30s
Overall bit rate                         : 3 146 Kbps
Video
ID                                       : 0
Format                                   : AVC
Format/Info                              : Advanced Video Codec
Format profile                           : High@L5.1
Format settings, CABAC                   : Yes
Format settings, ReFrames                : 6 frames
Codec ID                                 : H264
Duration                                 : 50mn 30s
Bit rate                                 : 2 943 Kbps
Nominal bit rate                         : 2 429 Kbps
Width                                    : 1 280 pixels
Height                                   : 720 pixels
Display aspect ratio                     : 16:9
Frame rate                               : 29.970 fps
Color space                              : YUV
Chroma subsampling                       : 4:2:0
Bit depth                                : 8 bits
Scan type                                : Progressive
Bits/(Pixel*Frame)                       : 0.107
Stream size                              : 1.04 GiB (94%)
Writing library                          : x264 core 115 r2008kMod 4c552d8
Encoding settings                        : cabac=1 / ref=6 / deblock=1:0:0 / analyse=0x3:0x13 / me=umh / subme=7 / psy=1 / fade_compensate=0.00 / psy_rd=1.00:0.00 / mixed_ref=1 / me_range=16 / chroma_me=1 / trellis=1 / 8x8dct=1 / cqm=0 / deadzone=21,11 / fast_pskip=1 / chroma_qp_offset=-2 / threads=4 / sliced_threads=1 / slices=4 / nr=0 / decimate=1 / interlaced=0 / bluray_compat=0 / constrained_intra=0 / bframes=0 / weightp=2 / keyint=250 / keyint_min=25 / scenecut=40 / intra_refresh=0 / rc_lookahead=0 / rc=abr / mbtree=0 / bitrate=2429 / ratetol=1.0 / qcomp=0.60 / qpmin=10 / qpmax=51 / qpstep=4 / vbv_maxrate=3000 / vbv_bufsize=3000 / nal_hrd=none / ip_ratio=1.40 / aq=1:1.00
Audio
ID                                       : 1
Format                                   : MPEG Audio
Format version                           : Version 1
Format profile                           : Layer 3
Mode                                     : Joint stereo
Codec ID                                 : 55
Codec ID/Hint                            : MP3
Duration                                 : 50mn 30s
Source duration                          : 50mn 30s
Bit rate mode                            : Constant
Bit rate                                 : 192 Kbps
Channel(s)                               : 2 channels
Sampling rate                            : 48.0 KHz
Compression mode                         : Lossy
Stream size                              : 69.4 MiB (6%)
Alignment                                : Aligned on interleaves
Interleave, duration                     : 33 ms (1.00 video frame)

Скриншоты




Последний раз редактировалось: Klёпa (2014-05-15 17:50), всего редактировалось 7 раз(а)
[Профиль] [ЛС]

Ирин

Стаж: 3 года 2 месяца

Сообщений: 52

Пост 07-Мар-2014 16:05 (спустя 4 дня)

[Цитировать]

2 серия!!! Приятного просмотра!
[Профиль] [ЛС]

EL_1991

Стаж: 3 года 10 месяцев

Сообщений: 36

Пост 07-Мар-2014 19:59 (спустя 3 часа)

[Цитировать]

спасибо большое=)
[Профиль] [ЛС]

Ирин

Стаж: 3 года 2 месяца

Сообщений: 52

Пост 20-Мар-2014 15:36 (спустя 12 дней)

[Цитировать]

Добавлена 3 серия!!! Приятного просмотра!!!
[Профиль] [ЛС]

Ирин

Стаж: 3 года 2 месяца

Сообщений: 52

Пост 04-Май-2014 08:34 (спустя 1 месяц 14 дней)

[Цитировать]

добавлена 4 серия.
[Профиль] [ЛС]

rodqer

Стаж: 3 года 10 месяцев

Сообщений: 417

Откуда: кемерово

Пост 05-Май-2014 06:41 (спустя 22 часа)

[Цитировать]

спасибо большое)))))))))))))))
[Профиль] [ЛС]

E2072

Стаж: 3 года 2 месяца

Сообщений: 120

Пост 30-Май-2014 06:19 (спустя 24 дня)

[Цитировать]

Спасибо!
[Профиль] [ЛС]

Ирин

Стаж: 3 года 2 месяца

Сообщений: 52

Пост 27-Авг-2014 11:17 (спустя 2 месяца 28 дней)

[Цитировать]

Добавлена 5 серия!!! Приятного просмотра!!!
[Профиль] [ЛС]

Tainted-love

Стаж: 2 года 11 месяцев

Сообщений: 1180

Пост 27-Авг-2014 18:21 (спустя 7 часов)

[Цитировать]

Какая прелесть... продолжение... я просто счастлива...
[Профиль] [ЛС]

Ирин

Стаж: 3 года 2 месяца

Сообщений: 52

Пост 03-Окт-2014 15:59 (спустя 1 месяц 6 дней)

[Цитировать]

Добавлена 6 серия!!! Приятного просмотра!!!
[Профиль] [ЛС]

Tainted-love

Стаж: 2 года 11 месяцев

Сообщений: 1180

Пост 03-Окт-2014 20:15 (спустя 4 часа)

[Цитировать]

Спасибо... спасибо огромное.
[Профиль] [ЛС]

khanhain

Стаж: 2 года

Сообщений: 3

Пост 12-Ноя-2014 18:09 (спустя 1 месяц 8 дней)

[Цитировать]

спасибо вам, жду с нетерпением!
[Профиль] [ЛС]

Ирин

Стаж: 3 года 2 месяца

Сообщений: 52

Пост 17-Ноя-2014 17:27 (спустя 4 дня)

[Цитировать]

Добавлена 7 серия!!!
[Профиль] [ЛС]

Tainted-love

Стаж: 2 года 11 месяцев

Сообщений: 1180

Пост 17-Ноя-2014 21:10 (спустя 3 часа)

[Цитировать]

Спасибо, спасибо.
[Профиль] [ЛС]

Ирин

Стаж: 3 года 2 месяца

Сообщений: 52

Пост 15-Дек-2014 18:21 (спустя 27 дней)

[Цитировать]

Добавлена 8 серия!!!
[Профиль] [ЛС]
Показать сообщения:    
Ответить на тему

Текущее время: Сегодня 16:06

Часовой пояс: GMT



Вы не можете начинать темы
Вы не можете отвечать на сообщения
Вы не можете редактировать свои сообщения
Вы не можете удалять свои сообщения
Вы не можете голосовать в опросах
Вы не можете прикреплять файлы к сообщениям
Вы не можете скачивать файлы