Жалобы на работу трекера ! прошу сюда :)

Счастье как солнечный день / Xin Fu Zui Qing Tian [25/25] (У Цзьень Синь) [2011 г., романтика, комедия, TVRip] [RAW] [360p] VO GREEN TEA

Страницы :  1, 2, 3, 4, 5, 6, 7  След.

Ответить на тему
 
Автор Сообщение

Valerius Kafa ®

Стаж: 3 года 1 месяц

Сообщений: 79

Пост 05-Мар-2014 18:23

[Цитировать]

Счастье как солнечный день / Xin Fu Zui Qing Tian / Happiness is like sunny day
Солнечное счастье / Sunny Happiness
Год выпуска: 2011
Страна: Тайвань
Жанр: Романтика, комедия
Продолжительность: 25 ~ 0:45:34-Перевод: Одноголосый (закадровый) Валерий Феодосов-Режиссер: У Цзьень Синь
В ролях: Mike He as Xiang Yun Jie / Сян Юнь Цзе
Janine Chang as Fang Yong Yong / Фан Ён Ён
Li Yi Feng as Xiang Yun Chao
Zhou Zi Han (周子涵) as Wang Lan
L i Jin Ming (李今銘) as Kong Xin Jie
Li Zhi Nan as Huang Si Han
Zheng Wei (鄭偉) as Wang Nian Jie
Chen Mu Yi as Fang Shen Fa
Chen You Fang as Lin Gui Zhi
Tang Ling (唐菱) as Jin Jing
Liao Hui Zhen (廖慧珍) as Jin Wen
Wu Zhen Ya (吳震亞) as Ba Hu
Zhang Qian (張謙) as Xiang Jing Song
Li Ping (李萍) as Wang Ya Shu
Ma Li Ou (馬利歐)
Ming Dao as Yin Ding Qiang / ИньДинЦян
Annie Chen as Pan Xiao Nuo / Пань Сяо Но
Kou Jia Rui (寇家瑞) as Ah Hao-Описание:
Эта красивая история, возможно, напомнит вам сказку про Золушку...
Смотрите. Наш Принц - Сян Юнь Цзе - прекрасный и, само собой, богатый молодой владелец отеля, внешне ну очень напоминающего дворец с золотыми залами, витыми лестницами... Вот мы все мечтаем о Принце (на белом коне), думая, что Принцы - идеальны. Возможно! Но эта байка явно не про нашего. Есть у Сян Юнь Цзе один изъян... склонность к идеальному порядку. Причем эта склонность порой доходит до абсурда...
Фан Ён Ён - ну чистой воды Золушка! С мачехой, вредными сводными сестренками... Наша Ён Ён - воспитанница приюта - прекрасна, вежлива, во всем аккуратна и ответственна. Её жизнь текла своим чередом... до тех пор, пока ее не переводят в другой отдел. Если раньше в ее обязанности входила уборка номеров отеля, то теперь... ей предстоит следить за чистотой кабинета нашего Принца. И ерунда, что он порой уходит с работы заполночь, а к утру кабинет снова должен быть идеально чистый... наша Золушка ведь ответственная и не хочет потерять работу, правда?
И как быть нашей Фан Ён Ён? Землю ее любимого приюта, который она навещает и по сей день, ведь там ее любимые воспитатели, братья и сестрички, хочет выкупить некая корпорация "Тянь Юй". Как думаете, о какой корпорации речь идет? Да-да... Представляете состояние Ён Ён, когда выясняется, что ее босс, он же Сян Юнь Цзе, он же Принц, он же Чистоплюй, хочет лишить крова бедных сирот? И к какому соглашению, думаете, они придут, воюя за свою правду? Может, поженятся, ха-ха? Кто знает...
Вроде бы Повествователь ввел зрителя в курс дела, да забыл добавить одну малюсенькую деталь... У нашего Принца, оказывается, есть восьмилетний сын, о существовании которого Сян Юнь Цзе до определенного времени не знал... В классической сказке про Золушку такие нюансы явно были завуалированы от читателя, а у нас вон как все интригующе...-Доп. информация:
серии с 1 по 5 перевод фансаб-группа "Альянс"

с 6 серии перевод: Виктория Широкова
Релиз группы GREEN TEA
Оформление постера: Елена Горборукова
Работа со звуком: Ольга Гритиева-Качество: TVRip
Формат: МР4
Видео кодек: XviD
Аудио кодек: MP3
Видео: 640x352, 760 Кбит/c, 25 fps
Аудио: 48 kHz, 192 Кбит/с, 2 канала

MediaInfo

Format : Matroska
File size : 311 MiB
Duration : 45mn 46s
Overall bit rate : 950 Kbps
Encoded date : UTC 2014-03-05 17:29:30
Writing application : mkvmerge v5.7.0 ('The Whirlwind') built on Jul 8 2012 20:08:51
Writing library : libebml v1.2.3 + libmatroska v1.3.0
Video #1
ID : 1
Format : AVC
Format/Info : Advanced Video Codec
Format profile : High@L3.0
Format settings, CABAC : Yes
Format settings, ReFrames : 4 frames
Muxing mode : Header stripping
Codec ID : V_MPEG4/ISO/AVC
Duration : 45mn 46s
Bit rate : 760 Kbps
Width : 640 pixels
Height : 352 pixels
Display aspect ratio : 16:9
Frame rate mode : Variable
Frame rate : 25.000 fps
Color space : YUV
Chroma subsampling : 4:2:0
Bit depth : 8 bits
Scan type : Progressive
Bits/(Pixel*Frame) : 0.135
Stream size : 242 MiB (78%)
Writing library : x264 core 112
Encoding settings : cabac=1 / ref=3 / deblock=1:0:0 / analyse=0x3:0x113 / me=hex / subme=7 / psy=1 / psy_rd=1.00:0.00 / mixed_ref=1 / me_range=16 / chroma_me=1 / trellis=1 / 8x8dct=1 / cqm=0 / deadzone=21,11 / fast_pskip=1 / chroma_qp_offset=-2 / threads=3 / sliced_threads=0 / nr=0 / decimate=1 / interlaced=0 / constrained_intra=0 / bframes=3 / b_pyramid=2 / b_adapt=1 / b_bias=0 / direct=1 / weightb=1 / open_gop=0 / weightp=2 / keyint=250 / keyint_min=25 / scenecut=40 / intra_refresh=0 / rc_lookahead=40 / rc=2pass / mbtree=1 / bitrate=760 / ratetol=1.0 / qcomp=0.60 / qpmin=3 / qpmax=51 / qpstep=4 / cplxblur=20.0 / qblur=0.5 / ip_ratio=1.40 / aq=1:1.00
Color primaries : BT.601-6 525, BT.1358 525, BT.1700 NTSC, SMPTE 170M
Transfer characteristics : BT.709-5, BT.1361
Matrix coefficients : BT.601-6 525, BT.1358 525, BT.1700 NTSC, SMPTE 170M
Audio #2
ID : 2
Format : MPEG Audio
Format version : Version 1
Format profile : Layer 3
Mode : Joint stereo
Muxing mode : Header stripping
Codec ID : A_MPEG/L3
Codec ID/Hint : MP3
Duration : 45mn 46s
Bit rate mode : Constant
Bit rate : 192 Kbps
Channel(s) : 2 channels
Sampling rate : 48.0 KHz
Compression mode : Lossy
Stream size : 62.9 MiB (20%)

Скриншоты


_________________
Подпись отключена за нарушение правил форума


Последний раз редактировалось: Valerius Kafa (2014-11-27 18:04), всего редактировалось 54 раз(а)
[Профиль] [ЛС]

E2072

Стаж: 3 года 2 месяца

Сообщений: 120

Пост 05-Мар-2014 21:05 (спустя 2 часа 41 минута)

[Цитировать]

Valerius Kafa, спасибо за релиз!
[Профиль] [ЛС]

Ланочка10_83

Стаж: 3 года 1 месяц

Сообщений: 131

Пост 06-Мар-2014 02:19 (спустя 5 часов)

[Цитировать]

Спасибо !!! :)
[Профиль] [ЛС]

Valerius Kafa ®

Стаж: 3 года 1 месяц

Сообщений: 79

Пост 06-Мар-2014 04:50 (спустя 2 часа 31 минута)

[Цитировать]

E2072, всегда пожалуйста!

_________________
Подпись отключена за нарушение правил форума
[Профиль] [ЛС]

Valerius Kafa ®

Стаж: 3 года 1 месяц

Сообщений: 79

Пост 16-Мар-2014 13:19 (спустя 10 дней)

[Цитировать]

Добавлена 2 серия!

_________________
Подпись отключена за нарушение правил форума
[Профиль] [ЛС]

EndWar

Стаж: 3 года 2 месяца

Сообщений: 2

Пост 16-Мар-2014 15:14 (спустя 1 час 55 минут)

[Цитировать]

720p будет?
[Профиль] [ЛС]

Valerius Kafa ®

Стаж: 3 года 1 месяц

Сообщений: 79

Пост 06-Апр-2014 06:26 (спустя 20 дней)

[Цитировать]

Добавлена 3 серия!

_________________
Подпись отключена за нарушение правил форума
[Профиль] [ЛС]

Valerius Kafa ®

Стаж: 3 года 1 месяц

Сообщений: 79

Пост 17-Апр-2014 12:56 (спустя 11 дней)

[Цитировать]

Добавлена 4 серия!

_________________
Подпись отключена за нарушение правил форума
[Профиль] [ЛС]

j_777

Стаж: 3 года 9 месяцев

Сообщений: 302

Пост 17-Апр-2014 14:53 (спустя 1 час 57 минут)

[Цитировать]

Спасибо!!!
[Профиль] [ЛС]

Ланочка10_83

Стаж: 3 года 1 месяц

Сообщений: 131

Пост 22-Апр-2014 07:42 (спустя 4 дня)

[Цитировать]

Спасибо вам за ваш труд!!! :)
[Профиль] [ЛС]

Valerius Kafa ®

Стаж: 3 года 1 месяц

Сообщений: 79

Пост 05-Май-2014 15:14 (спустя 13 дней)

[Цитировать]

Добавлена 5 серия!

_________________
Подпись отключена за нарушение правил форума
[Профиль] [ЛС]

j_777

Стаж: 3 года 9 месяцев

Сообщений: 302

Пост 06-Май-2014 01:19 (спустя 10 часов)

[Цитировать]

Спасибо большое!
[Профиль] [ЛС]

Tainted-love

Стаж: 2 года 11 месяцев

Сообщений: 1180

Пост 10-Май-2014 16:58 (спустя 4 дня)

[Цитировать]

С нетерпением буду ждать окончания проекта. Мне очень нравится актер, играющий главного героя Mike He. Благодарю за ваш нелегкий труд и спасибо огромное!!!!!!!!!!!!!!!
[Профиль] [ЛС]

Valerius Kafa ®

Стаж: 3 года 1 месяц

Сообщений: 79

Пост 21-Май-2014 15:39 (спустя 10 дней)

[Цитировать]

Добавлена 6 серия!

_________________
Подпись отключена за нарушение правил форума
[Профиль] [ЛС]

Tainted-love

Стаж: 2 года 11 месяцев

Сообщений: 1180

Пост 31-Май-2014 20:33 (спустя 10 дней)

[Цитировать]

Как здорово! Спасибо!!!!!!!!!!!!!!!!!!!!!!!!!
[Профиль] [ЛС]
Показать сообщения:    
Ответить на тему

Текущее время: Сегодня 10:32

Часовой пояс: GMT



Вы не можете начинать темы
Вы не можете отвечать на сообщения
Вы не можете редактировать свои сообщения
Вы не можете удалять свои сообщения
Вы не можете голосовать в опросах
Вы не можете прикреплять файлы к сообщениям
Вы не можете скачивать файлы