Жалобы на работу трекера ! прошу сюда :)

Мой питомец! / Ты мой питомец! / You're my pet! (Ким Пён Гон / Kim Byung Gun) [2011, Южная Корея, Комедия, романтика, мелодрама, HDRip] DVO GREEN TEA & Safari Sound

Ответить на тему
 
Автор Сообщение

Nas ®

Стаж: 3 года 10 месяцев

Сообщений: 372

Пост 22-Янв-2013 12:32

[Цитировать]

Мой питомец!
Ты мой питомец! / You're my pet!
- Страна: Южная Корея
Жанр: Комедия, романтика, мелодрама
Год выпуска: 2011
Продолжительность: 01:50:10-Перевод: двухголосый закадровый Nas, Collapse
Работа со звуком: pandora2177
Сэмпл: http://www.sendspace.com/file/4c11f3

Cубтитры: нет-Режиссер: Ким Пён Гон / Kim Byung Gun
В ролях:
Ким Ха Ныль - Джи Ын И
Чан Гын Сок - Кан Ин Хо
Рю Тэ Джун - Ча У Сун
Джан Ю Ми - Ли Ен Ын
Чои Джун Хун - Джи Ын Су
Кан Ха Ныль - Ен Су
Кан Хэ Ин - Ким Ми Сун
Ко На Ын - Ким Джин А
Ли Джин Хи - Ю А Ен
Ан Кил Кан - главный редакор
Описание: Однажды, под дверью своей квартиры молодая женщина находит коробку, внутри которой оказывается парень. Она приводит его к себе домой и в шутку говорит, что неплохо было бы, если бы парень стал ее питомцем. Все дело в том, что он очень напоминает любимую собаку, которая была у нее в детстве. На что парень неожиданно соглашается. Позже женщина узнает, что ее "любимец" – одаренный танцор. Все усложняется, когда на горизонте появляется ее старая любовь из колледжа.
Описание: springfeeling-Доп. информация:
Озвучено по субтитрам фансаб-группы "Мания"
Совместный релиз: GREEN TEA & Safari Sound
Оформление постера: NovA_JKE-Качество видео: HDRip
Формат видео: AVI
Видео: XviD, 800 х 340, 2,35:1, 23,976 кадра/сек, 1396 Кбит/сек
Аудио: MP3, 44,1 КГц, 192 Кбит/сек, 2 канала
ОСТ к фильму Мой питомец!

MediaInfo

Формат : AVI
Формат/Информация : Audio Video Interleave
Размер файла : 1,23 Гбайт
Продолжительность : 1 ч. 50 м.
Общий поток : 1597 Кбит/сек
Программа кодирования : VirtualDubMod 1.5.10.2 (build 2540/release)
Библиотека кодирования : VirtualDubMod build 2540/release
Видео
Идентификатор : 0
Формат : MPEG-4 Visual
Профиль формата : Simple@L1
Параметр BVOP формата : Нет
Параметр QPel формата : Нет
Параметр GMC формата : Без точки перехода
Параметр матрицы формата : Default (H.263)
Идентификатор кодека : XVID
Идентификатор кодека/Подсказка : XviD
Продолжительность : 1 ч. 50 м.
Битрейт : 1396 Кбит/сек
Ширина : 800 пикселей
Высота : 340 пикселей
Соотношение сторон : 2,35:1
Частота кадров : 23,976 кадра/сек
Цветовое пространство : YUV
Субдискретизация насыщенности : 4:2:0
Битовая глубина : 8 бит
Тип развёртки : Прогрессивная
Метод сжатия : С потерями
Бит/(Пиксели*Кадры) : 0.214
Размер потока : 1,07 Гбайт (87%)
Библиотека кодирования : Lavc53.36.0
Аудио
Идентификатор : 1
Формат : MPEG Audio
Версия формата : Version 1
Профиль формата : Layer 3
Идентификатор кодека : 55
Идентификатор кодека/Подсказка : MP3
Продолжительность : 1 ч. 50 м.
Вид битрейта : Постоянный
Битрейт : 192 Кбит/сек
Каналы : 2 канала
Частота : 44,1 КГц
Метод сжатия : С потерями
Размер потока : 151 Мбайт (12%)
Выравнивание : Разделение по промежуткам
Продолжительность промежутка : 42 мс. (1,00 видеокадр)
Время предзагрузки промежутка : 500 мс.

Скриншот c названием фильма

Скриншоты

[Профиль] [ЛС]

ekctra25

Стаж: 3 года 10 месяцев

Сообщений: 143

Пост 22-Янв-2013 19:56 (спустя 7 часов)

[Цитировать]

Спасибо)

_________________
[Профиль] [ЛС]

elzanorge

Стаж: 3 года 10 месяцев

Сообщений: 22

Пост 23-Янв-2013 19:05 (спустя 23 часа)

[Цитировать]

Всё таки Соша талантливый актёр и певец, но танцор он никудышный))))
[Профиль] [ЛС]

camille04

Стаж: 3 года 10 месяцев

Сообщений: 6

Пост 08-Фев-2013 15:13 (спустя 15 дней)

[Цитировать]

обалденный фильм, смотрела и получала море удовольствия, играют великолепно оба, Чан Гын Сок отменно изображает "питомца" с характером, ))))))))). СПАСИБО
[Профиль] [ЛС]

лагуна120

Стаж: 3 года 9 месяцев

Сообщений: 26

Пост 18-Фев-2013 11:29 (спустя 9 дней)

[Цитировать]

Прикольный фильм
[Профиль] [ЛС]

Эрька

Стаж: 3 года 10 месяцев

Сообщений: 12

Откуда: Молдова

Пост 25-Фев-2013 19:48 (спустя 7 дней)

[Цитировать]

Хороший фильм)
[Профиль] [ЛС]

AlexStarRu

Стаж: 3 года 9 месяцев

Сообщений: 149

Пост 09-Дек-2013 10:46 (спустя 9 месяцев 11 дней)

[Цитировать]

Странное впечатление от фильма. Актёры симпатичные, играют хорошо. Но сюжетная идея с питомцем ну уж настолько .. "придуманная". Даже для корейских комедий как-то странно :).
В общем - твёрдая "четвёрка".
[Профиль] [ЛС]

Lisas

Стаж: 3 года

Сообщений: 6

Пост 09-Дек-2013 13:57 (спустя 3 часа)

[Цитировать]

Странный, но очень веселый и теплый фильм! Мне понравилось)))
[Профиль] [ЛС]

missell

Стаж: 2 года 9 месяцев

Сообщений: 1

Пост 15-Фев-2014 06:35 (спустя 2 месяца 5 дней)

[Цитировать]

есть другая версия фильма, с другими актерами и из нескольки серий. Обожаю Гын Сока, но этот фильм намного проигрывает!
[Профиль] [ЛС]

Klёпa

Стаж: 3 года 2 месяца

Сообщений: 906

Пост 15-Фев-2014 10:48 (спустя 4 часа)

[Цитировать]

missell, я так полагаю, что по логике если "из нескольких серий", то это уже не фильм, а сериал)) И да, есть сериал. Японский. Так и называется "Kimi wa petto". bs
[Профиль] [ЛС]

Dark_Lady

Стаж: 2 года 5 месяцев

Сообщений: 2

Пост 07-Июл-2014 11:10 (спустя 4 месяца 20 дней)

[Цитировать]

Спасибо!! Классный фильм! Смотрела его с субтитрами, но озвучка - супер!
[Профиль] [ЛС]

Anyaaaa

Стаж: 2 года 11 месяцев

Сообщений: 4

Откуда: Нижний Новгород - Анапа

Пост 14-Июл-2014 07:54 (спустя 6 дней)

[Цитировать]

Хороший фильм,смеялась над моментами долго :D
Соша превосходный актер :)

_________________
Помни: рано или поздно твой сын последует твоему примеру, а не твоим советам.
[Профиль] [ЛС]

Anyaaaa

Стаж: 2 года 11 месяцев

Сообщений: 4

Откуда: Нижний Новгород - Анапа

Пост 14-Июл-2014 07:55 (спустя 18 секунд)

[Цитировать]

И спасибо за перевод :)

_________________
Помни: рано или поздно твой сын последует твоему примеру, а не твоим советам.
[Профиль] [ЛС]

deadstar

Стаж: 2 года 8 месяцев

Сообщений: 1

Откуда: Томск

Пост 20-Авг-2014 05:38 (спустя 1 месяц 5 дней)

[Цитировать]

Спасибо за перевод))
[Профиль] [ЛС]

Sofira

Стаж: 2 года 1 месяц

Сообщений: 8

Откуда: Москва

Пост 11-Дек-2014 03:04 (спустя 3 месяца 21 день)

[Цитировать]

Спасибо огромное за перевод!!! Фильм очень хороший, позитивный
[Профиль] [ЛС]
Показать сообщения:    
Ответить на тему

Текущее время: Сегодня 23:11

Часовой пояс: GMT



Вы не можете начинать темы
Вы не можете отвечать на сообщения
Вы не можете редактировать свои сообщения
Вы не можете удалять свои сообщения
Вы не можете голосовать в опросах
Вы не можете прикреплять файлы к сообщениям
Вы не можете скачивать файлы