Жалобы на работу трекера ! прошу сюда :)

Нуждаюсь в тебе / Needing You / Goo naam gwa neui (Джонни То / Johnnie To, Ка-Фай Вай / Ka-Fai Wai) [2000, Гонконг, комедия, мелодрама, DVDRip] DVO GREEN TEA

Ответить на тему
 
Автор Сообщение

pandora2177 ®

Стаж: 3 года 10 месяцев

Сообщений: 368

Пост 23-Янв-2013 08:11

[Цитировать]

Нуждаюсь в тебе / Needing You / Goo naam gwa neui Страна: Гонконг
Жанр: комедия, мелодрама
Год выпуска: 2000
Продолжительность: 01:44:00
Перевод: Двухголосый закадровый) pandora2177, Ustas Alexis
Cубтитры: нет
Режиссер: Джонни То / Johnnie To, Ка-Фай Вай / Ka-Fai Wai
В ролях:
Энди Лау (Andy Lau Tak-Wah) в роли Энди Чуна
Сэмми Ченг (Sammi Cheng Sau-Man) в роли Кинки Квок
Фиона Люн (Fiona Leung Ngai-Ling) в роли Фионы
Реймонд Вонг (Raymond Wong Ho-Yin) в роли Роджера Яна
Описание:
Энди - самоуверенный топ-менеджер в крупной компании. Разведен, независим, настоящий профи в своем деле. Кинки - новая сотрудница, слишком чувствительная и покладистая, чтобы преуспевать. Вечная палочка-выручалочка для неблагодарных коллег, и нетребовательная подружка для ветреного бойфренда. Кинки сначала нервирует Энди, потом вызывает жалость, потом желание помочь и... дальше происходит то, что происходит в каждой уважающей себя мелодраме. Метания-терзания, смена партнеров и, конечно, счастливый финал.
История сказочная ровно настолько, чтобы увести нас в мир грез, и изящно-ироничная настолько, чтобы не слишком мучиться от переизбытка сладости.
Доп. информация:
Перевод, тайминг - indiotka
Редакция - nasinix

Релиз: Релиз-группа "GREEN TEA"
Сэмпл: http://multi-up.com/622757
Качество видео: DVDRip (взято http://rutracker.org/forum/viewtopic.php?t=3778031)
Формат видео: AVI
Видео: XviD, 592x320, 4:2:0, 23,976 кадра/сек, 790 Кбит/сек
Аудио: MP3, 44,1 КГц, 192 Кбит/сек, 2 канала

MediaInfo

Формат : AVI
Формат/Информация : Audio Video Interleave
Размер файла : 738 Мбайт
Продолжительность : 1 ч. 44 м.
Общий поток : 992 Кбит/сек
Программа кодирования : VirtualDubMod 1.5.10.2 (build 2540/release)
Библиотека кодирования : VirtualDubMod build 2540/release
Видео
Идентификатор : 0
Формат : MPEG-4 Visual
Профиль формата : Advanced Simple@L5
Параметр BVOP формата : 1
Параметр QPel формата : Нет
Параметр GMC формата : Без точки перехода
Параметр матрицы формата : Default (H.263)
Режим смешивания : Сжатый битовый поток
Идентификатор кодека : XVID
Идентификатор кодека/Подсказка : XviD
Продолжительность : 1 ч. 44 м.
Битрейт : 790 Кбит/сек
Ширина : 592 пикселя
Высота : 320 пикселей
Соотношение сторон : 1,850
Частота кадров : 23,976 кадра/сек
Цветовое пространство : YUV
Субдискретизация насыщенности : 4:2:0
Битовая глубина : 8 бит
Тип развёртки : Прогрессивная
Метод сжатия : С потерями
Бит/(Пиксели*Кадры) : 0.174
Размер потока : 588 Мбайт (80%)
Библиотека кодирования : XviD 1.0.0 (UTC 2004-05-09)
Аудио
Идентификатор : 1
Формат : MPEG Audio
Версия формата : Version 1
Профиль формата : Layer 3
Идентификатор кодека : 55
Идентификатор кодека/Подсказка : MP3
Продолжительность : 1 ч. 44 м.
Вид битрейта : Постоянный
Битрейт : 192 Кбит/сек
Каналы : 2 канала
Частота : 44,1 КГц
Метод сжатия : С потерями
Размер потока : 143 Мбайт (19%)
Выравнивание : Разделение по промежуткам
Продолжительность промежутка : 42 мс. (1,00 видеокадр)
Время предзагрузки промежутка : 500 мс.

Скриншот c названием фильма

Скриншоты





[Профиль] [ЛС]

>^_^<

Стаж: 3 года 10 месяцев

Сообщений: 11

Пост 29-Янв-2013 01:44 (спустя 5 дней)

[Цитировать]

Видео есть более качественное.
Фильм давно смотрел, стоит внимания!

_________________
[Профиль] [ЛС]

lenivaya10002

Стаж: 3 года 9 месяцев

Сообщений: 37

Пост 05-Мар-2013 22:14 (спустя 1 месяц 7 дней)

[Цитировать]

скоро заценим сколько внимания он стоит )

_________________
верхняя это обиженная нижняя у которой нет хозяина
[Профиль] [ЛС]

lenivaya10002

Стаж: 3 года 9 месяцев

Сообщений: 37

Пост 07-Мар-2013 02:34 (спустя 1 день 4 часа)

[Цитировать]

С первых минут просмотра появилось ощущение чего-то знакомого, какого-то ушедшего времени, приятной сладости мятной жевательной резинки

Фильм немного наивный, добрый, легко смотрится и насыщен атмосферой конца 90-х. Сейчас такое кино уже не снимают. Его время бесследно ушло, под звуки крахов финансовых пузырей, за пределами ресурсии, начиная с 2002г.
Красивые актеры, качественная озвучка, правда видео не фонтан(DVDRip 737Мб на 105 минут).
Посмотрев, получил легкое послеобеденное удовольствие, как от вкуса прохладной сладости пластинки жевательной резинки после еды. :)

_________________
верхняя это обиженная нижняя у которой нет хозяина
[Профиль] [ЛС]

AlexStarRu

Стаж: 3 года 9 месяцев

Сообщений: 149

Пост 02-Фев-2014 03:52 (спустя 10 месяцев 26 дней)

[Цитировать]

За три ночи скачалось 60%. Ау, есть тут кто-нибудь ?
[Профиль] [ЛС]

AlexStarRu

Стаж: 3 года 9 месяцев

Сообщений: 149

Пост 04-Фев-2014 01:16 (спустя 1 день 21 час)

[Цитировать]

Ещё 2 ночи и +10% :).
[Профиль] [ЛС]

AlexStarRu

Стаж: 3 года 9 месяцев

Сообщений: 149

Пост 07-Фев-2014 01:17 (спустя 3 дня)

[Цитировать]

Сегодня добавилось 4мб за ночь.
Никто не хочет делиться :(
[Профиль] [ЛС]

AlexStarRu

Стаж: 3 года 9 месяцев

Сообщений: 149

Пост 13-Фев-2014 16:31 (спустя 6 дней)

[Цитировать]

За 2 недели 79%
Сиды - 0, пиры - 6
У меня уже отдано больше, чем скачано.
Есть хоть кто-то теоретически раздающий ,
[Профиль] [ЛС]

AlexStarRu

Стаж: 3 года 9 месяцев

Сообщений: 149

Пост 15-Фев-2014 15:56 (спустя 1 день 23 часа)

[Цитировать]

Вот спасибо, всё докачалось за 5 минут
[Профиль] [ЛС]

AlexStarRu

Стаж: 3 года 9 месяцев

Сообщений: 149

Пост 25-Фев-2014 14:40 (спустя 9 дней)

[Цитировать]

Наверное, не зря мучался со скачиванием :).
Не шедевр, но посмотрел с удовольствием.
[Профиль] [ЛС]
Показать сообщения:    
Ответить на тему

Текущее время: Сегодня 03:03

Часовой пояс: GMT



Вы не можете начинать темы
Вы не можете отвечать на сообщения
Вы не можете редактировать свои сообщения
Вы не можете удалять свои сообщения
Вы не можете голосовать в опросах
Вы не можете прикреплять файлы к сообщениям
Вы не можете скачивать файлы