Жалобы на работу трекера ! прошу сюда :)

Вкус денег / The Taste of Money / Don-eui Mat (Лим Сан-Су / Lim Sang-soo) [2012 г., драма, эротика, BDRip] DVO GREEN TEA

Ответить на тему
 
Автор Сообщение

pandora2177 ®

Стаж: 3 года 10 месяцев

Сообщений: 368

Пост 30-Янв-2013 16:45

[Цитировать]

Вкус денег
The Taste of Money / Don-eui Mat

-
Год выпуска: 2012
Страна: Южная Корея
Жанр: драма, эротика
Продолжительность: 01:54:00
-
Перевод: Двухголосый (закадровый) Виктор Ерёменко и Ольга Гринтиева
-
Режиссер: Лим Сан-Су / Lim Sang-soo
В ролях: Ким Кан-У (Бросок - История одного человека, Лучшее завтра) – Чжу Ён-Чак
Пэк Юн-Сик (Дерево с глубокими корнями, Золотая Вилла) - президент Юн
Юн Ё-Чжон (Король двух сердец, Семейка моего мужа) - Пэк Гым-Ок
Ким Хё-Чжин (Мэри, где же ты была всю ночь?, У Каждого Есть Секрет) - Юн На-Ми
Он Чжу-Ван (Школа балетного танца, Moя мoгyчaя пpинцecca) – Юн-Чхоль
Описание: В фильме показан мир корейских конгломератов, известных как семьи "чоболей". Мир денег и власти, жестокой и беспощадной реальности. Только ради денег и власти в этом мире любят, ненавидят, занимаются сексом и убивают... Амбициозный молодой человек хочет получить от жизни самое лучшее. Ему удается получить место личного секретаря в богатой и влиятельной семье Пэк. Очень скоро юноше придется, столкнувшись с реалиями жизни, сделать выбор между моралью и успехом...
-
Доп. информация: Релиз группы GREEN TEA
Перевод выполнен группой GREEN TEA
Оформление постера dusy78
-
Качество: BDRip
Формат: MKV
Видео кодек: H.26x
Аудио кодек: AC3
Видео: 1280x536, 24,000 кадра/сек, 4:2:0
Аудио: AC-3, 448 Кбит/сек, 6 каналов, 48,0 КГц

МедиаИнфо

Формат : Matroska
Версия формата : Version 2
Размер файла : 4,21 Гбайт
Продолжительность : 1 ч. 54 м.
Общий поток : 5252 Кбит/сек
Дата кодирования : UTC 2013-01-30 13:29:21
Программа кодирования : mkvmerge v5.7.0 ('The Whirlwind') built on Jul 8 2012 20:08:51
Библиотека кодирования : libebml v1.2.3 + libmatroska v1.3.0
Видео
Идентификатор : 1
Формат : AVC
Формат/Информация : Advanced Video Codec
Профиль формата : High@L4.1
Параметр CABAC формата : Да
Параметр ReFrames формата : 8 кадров
Режим смешивания : Header stripping
Идентификатор кодека : V_MPEG4/ISO/AVC
Продолжительность : 1 ч. 54 м.
Битрейт : 4810 Кбит/сек
Ширина : 1280 пикселей
Высота : 536 пикселей
Соотношение сторон : 2,40:1
Частота кадров : 24,000 кадра/сек
Цветовое пространство : YUV
Субдискретизация насыщенности : 4:2:0
Битовая глубина : 8 бит
Тип развёртки : Прогрессивная
Бит/(Пиксели*Кадры) : 0.292
Размер потока : 3,77 Гбайт (89%)
Библиотека кодирования : x264 core 125 r2208 d9d2288
Настройки программы : cabac=1 / ref=8 / deblock=1:-3:-3 / analyse=0x3:0x113 / me=umh / subme=10 / psy=1 / psy_rd=1.10:0.00 / mixed_ref=1 / me_range=32 / chroma_me=1 / trellis=2 / 8x8dct=1 / cqm=0 / deadzone=21,11 / fast_pskip=0 / chroma_qp_offset=-4 / threads=6 / lookahead_threads=1 / sliced_threads=0 / nr=0 / decimate=0 / interlaced=0 / bluray_compat=0 / constrained_intra=0 / bframes=8 / b_pyramid=2 / b_adapt=2 / b_bias=0 / direct=3 / weightb=1 / open_gop=0 / weightp=2 / keyint=250 / keyint_min=23 / scenecut=40 / intra_refresh=0 / rc_lookahead=48 / rc=2pass / mbtree=1 / bitrate=4810 / ratetol=1.0 / qcomp=0.60 / qpmin=0 / qpmax=69 / qpstep=4 / cplxblur=20.0 / qblur=0.5 / ip_ratio=1.40 / aq=1:0.80
Язык : English
Default : Да
Forced : Нет
Аудио
Идентификатор : 2
Формат : AC-3
Формат/Информация : Audio Coding 3
Расширение режима : CM (complete main)
Режим смешивания : Header stripping
Идентификатор кодека : A_AC3
Продолжительность : 1 ч. 54 м.
Вид битрейта : Постоянный
Битрейт : 448 Кбит/сек
Каналы : 6 каналов
Расположение каналов : Front: L C R, Side: L R, LFE
Частота : 48,0 КГц
Битовая глубина : 16 бит
Метод сжатия : С потерями
Размер потока : 368 Мбайт (9%)
Default : Да
Forced : Нет

Скриншоты






Альтернативная раздача в AVI: http://tracker.green-tea.tv/viewtopic.php?t=173
[Профиль] [ЛС]
Показать сообщения:    
Ответить на тему

Текущее время: Сегодня 08:53

Часовой пояс: GMT



Вы не можете начинать темы
Вы не можете отвечать на сообщения
Вы не можете редактировать свои сообщения
Вы не можете удалять свои сообщения
Вы не можете голосовать в опросах
Вы не можете прикреплять файлы к сообщениям
Вы не можете скачивать файлы