Жалобы на работу трекера ! прошу сюда :)

Фантастические парасуициды / Fantastic Parasuicides (PARK Su-yeong / JO Chang-ho / KIM Seong-ho) [2007, Южная Корея, драма, психологический, DVDRip] DVO GREEN TEA

Ответить на тему
 
Автор Сообщение

Nas ®

Стаж: 3 года 10 месяцев

Сообщений: 372

Пост 12-Фев-2013 07:24

[Цитировать]

Фантастические парасуициды
Fantastic Parasuicides

-
Страна: Южная Корея
Жанр: драма, психологический
Год выпуска: 2007
Продолжительность: 1 ч. 32 м.
-
Перевод: Двухголосый (закадровый) Nas и Frank_Tsvetkov
Сэмпл: http://yadi.sk/d/R5UQwXkX2YLFQ
-
Cубтитры: нет
Режиссеры: PARK Su-yeong, JO Chang-ho, KIM Seong-ho
В ролях:
HAN Yeo-reum, Tablo, KIM Ga-yeon, PARK Hwi-sun, KIM Nam-jin, LEE Hye-sang, JEONG Ae-hwa, KIM Su-nam, KIM Jeong-gug, KIM Gyeong-rae
Описание: Фантастическиие парасуициды - фильм, состоящий из трех короткометражных фильмов, которые идут вместе под общей темой "Стоит ли умирать?".
-
Доп. информация:
Релиз: группа "GREEN TEA"
Перевод субтитров: Okidzyke
Оформление постера: Amoreoni
Работа со звуком: Ольга Гринтиева

-
Качество видео: DVDRip
Формат видео: AVI
Видео: XviD, 720х416, 29,970 кадров/сек, 1926 Кбит/сек
Аудио: MP3, 48,0 Гц, 192 Кбит/сек, 2 канала

MediaInfo

Формат : AVI
Формат/Информация : Audio Video Interleave
Размер файла : 1,37 Гбайт
Продолжительность : 1 ч. 32 м.
Общий поток : 2130 Кбит/сек
Программа кодирования : VirtualDubMod 1.5.10.2 (build 2540/release)
Библиотека кодирования : VirtualDubMod build 2540/release
Видео
Идентификатор : 0
Формат : MPEG-4 Visual
Профиль формата : Advanced Simple@L5
Параметр BVOP формата : 1
Параметр QPel формата : Нет
Параметр GMC формата : Без точки перехода
Параметр матрицы формата : Выборочная
Идентификатор кодека : XVID
Идентификатор кодека/Подсказка : XviD
Продолжительность : 1 ч. 32 м.
Битрейт : 1926 Кбит/сек
Ширина : 720 пикселей
Высота : 416 пикселей
Соотношение сторон : 16:9
Частота кадров : 29,970 кадров/сек
Цветовое пространство : YUV
Субдискретизация насыщенности : 4:2:0
Битовая глубина : 8 бит
Тип развёртки : Прогрессивная
Метод сжатия : С потерями
Бит/(Пиксели*Кадры) : 0.215
Размер потока : 1,24 Гбайт (90%)
Библиотека кодирования : XviD 1.2.1 (UTC 2008-12-04)
Аудио
Идентификатор : 1
Формат : MPEG Audio
Версия формата : Version 1
Профиль формата : Layer 3
Идентификатор кодека : 55
Идентификатор кодека/Подсказка : MP3
Продолжительность : 1 ч. 32 м.
Вид битрейта : Постоянный
Битрейт : 192 Кбит/сек
Каналы : 2 канала
Частота : 48,0 КГц
Метод сжатия : С потерями
Размер потока : 127 Мбайт (9%)
Выравнивание : Соединение по промежуткам
Продолжительность промежутка : 33 мс. (1,00 видеокадр)
Время предзагрузки промежутка : 504 мс.
Язык : Korean

Скриншоты



[Профиль] [ЛС]

nolik

Стаж: 3 года 9 месяцев

Сообщений: 27

Пост 24-Янв-2016 14:56 (спустя 2 года 11 месяцев)

[Цитировать]

пожалуйста, встаньте на раздачу.
[Профиль] [ЛС]

nolik

Стаж: 3 года 9 месяцев

Сообщений: 27

Пост 24-Янв-2016 19:00 (спустя 4 часа)

[Цитировать]

Спасибо, скачала.
[Профиль] [ЛС]
Показать сообщения:    
Ответить на тему

Текущее время: Сегодня 23:10

Часовой пояс: GMT



Вы не можете начинать темы
Вы не можете отвечать на сообщения
Вы не можете редактировать свои сообщения
Вы не можете удалять свои сообщения
Вы не можете голосовать в опросах
Вы не можете прикреплять файлы к сообщениям
Вы не можете скачивать файлы