Жалобы на работу трекера ! прошу сюда :)

Холодная война / Cold War (Лок Мэн Люн / Санни Люк) [2012, Китай, боевик, HDRip] DVO GREEN TEA

Ответить на тему
 
Автор Сообщение

Nas ®

Стаж: 3 года 10 месяцев

Сообщений: 372

Пост 20-Фев-2013 15:33

[Цитировать]

Холодная война / Cold War
-
Страна: Китай
Жанр: боевик
Год выпуска: 2012
Продолжительность: 1 ч. 42 м.
-
Перевод: двухголосый закадровый Ольга Гринтиева и Виктор Еременко
Сэмпл: http://yadi.sk/d/97QkscEE2kyHB
-
Cубтитры: нет
Режиссеры: Лок Мэн Люн, Санни Люк
В ролях: Аарон Квок, Тони Люн Ка Фай, Энди Лау, Аариф Ли, Кар Лок Чин, Грэйс Хуанг, Байрон Манн, Энди Он, Чарли Енг, Теренс Йин
Описание:
У гонконгской полиции дел невпроворот — в Монгкоке произошел сильный взрыв, а тем временем с радаров исчез один из полицейских патрульных экипажей, причем, среди пропавших сын полицейского начальника, мистера Ли. Ли называет операцию по его поиску «Холодная война» и бросает на нее все полицейские силы, что заставляет офицера Шона Лау сместить его с поста руководителя операцией. Тем не менее, поймать похитителей не удается — деньги за выкуп пропали, хорошо хоть полицейские вернулись домой. Но спустя какое-то время следователи из отдела внутренних расследований начинают подозревать, что вся эта операция была срежиссирована кем-то из служителей закона… *Акира (Борис Хохлов)
-
Доп. информация:
Релиз: группа "GREEN TEA"
Перевод субтитров: Эльза Нордж
Рип: Bermud
Работа со звуком: Ольга Гринтиева

-
Качество видео: HDRip
Формат видео: AVI
Видео: XVID, 720х304, 24,000 кадров/сек, 2139 Кбит/сек
Аудио: AC-3, 48,0 Гц, 192 Кбит/сек, 2 канала
!!! Альтернативная раздача 1080p
!!! Альтернативная раздача 720p

MediaInfo

Формат : AVI
Формат/Информация : Audio Video Interleave
Размер файла : 1,66 Гбайт
Продолжительность : 1 ч. 41 м.
Общий поток : 2341 Кбит/сек
Программа кодирования : VirtualDubMod 1.5.10.2 (build 2540/release)
Библиотека кодирования : VirtualDubMod build 2540/release
Видео
Идентификатор : 0
Формат : MPEG-4 Visual
Профиль формата : Advanced Simple@L5
Параметр BVOP формата : 1
Параметр QPel формата : Нет
Параметр GMC формата : Без точки перехода
Параметр матрицы формата : Выборочная
Идентификатор кодека : XVID
Идентификатор кодека/Подсказка : XviD
Продолжительность : 1 ч. 41 м.
Битрейт : 2139 Кбит/сек
Ширина : 720 пикселей
Высота : 304 пикселя
Соотношение сторон : 2,35:1
Частота кадров : 24,000 кадра/сек
Цветовое пространство : YUV
Субдискретизация насыщенности : 4:2:0
Битовая глубина : 8 бит
Тип развёртки : Прогрессивная
Метод сжатия : С потерями
Бит/(Пиксели*Кадры) : 0.407
Размер потока : 1,52 Гбайт (91%)
Библиотека кодирования : XviD 72
Аудио
Идентификатор : 1
Формат : AC-3
Формат/Информация : Audio Coding 3
Расширение режима : CM (complete main)
Идентификатор кодека : 2000
Продолжительность : 1 ч. 41 м.
Вид битрейта : Постоянный
Битрейт : 192 Кбит/сек
Каналы : 2 канала
Расположение каналов : Front: L R
Частота : 48,0 КГц
Битовая глубина : 16 бит
Метод сжатия : С потерями
Размер потока : 140 Мбайт (8%)
Выравнивание : Разделение по промежуткам
Продолжительность промежутка : 42 мс. (1,00 видеокадр)
Время предзагрузки промежутка : 500 мс.

Скриншоты





[Профиль] [ЛС]

WinniePooh007

Стаж: 3 года 10 месяцев

Сообщений: 2

Пост 21-Фев-2013 08:03 (спустя 16 часов)

[Цитировать]

Пожалуйста, подпишите, что описание - Акира (Борис Хохлов). Спасибо :)

_________________
[Профиль] [ЛС]

pandora2177

Стаж: 3 года 10 месяцев

Сообщений: 368

Пост 21-Фев-2013 15:58 (спустя 7 часов)

[Цитировать]

WinniePooh007, подписали.
[Профиль] [ЛС]
Показать сообщения:    
Ответить на тему

Текущее время: Сегодня 23:08

Часовой пояс: GMT



Вы не можете начинать темы
Вы не можете отвечать на сообщения
Вы не можете редактировать свои сообщения
Вы не можете удалять свои сообщения
Вы не можете голосовать в опросах
Вы не можете прикреплять файлы к сообщениям
Вы не можете скачивать файлы