Жалобы на работу трекера ! прошу сюда :)

Замечательное радио / Wonderful radio (Квон Чиль Ин / Kwon Chil In) [2012, Южная Корея, комедия, романтика, DVDRip] DVO GREEN TEA

Ответить на тему
 
Автор Сообщение

Амальфи ®

Стаж: 3 года 10 месяцев

Сообщений: 264

Пост 20-Янв-2013 12:10

[Цитировать]

Замечательное радио / Wonderful radio Страна: Южная Корея
Жанр: комедия, романтика
Год выпуска: 2012
Продолжительность: 02:01:44
Перевод: Двухголосый закадровый Nas и Collapse
СЭМПЛ http://multi-up.com/756760
Cубтитры: нет
Режиссер: Квон Чиль Ин
В ролях: Ли Мин Чон
Ли Чон Джин
Ли Кван Су
Чон Ю Ми
Ким Хы Сук
Ким Чон Тэ
Со Ён
Описание: Джин А – бывший лидер некогда популярной девичьей группы «Purple», ведет радиопрограмму под названием «Замечательное радио». Продюссер программы уходит в отпуск, и вместо него приходит новый парень. Джи Хёк – холодный, недружелюбный человек, который, даже холодной зимой, пьет кофе только со льдом. Легко раздражительный парень и тщеславная Джин А изрядно попортят друг другу нервы. Поговорив со своим продюсером, Джин А придумывает идею для новой рубрики. Со временем, они больше узнают друг о друге и постепенно становятся ближе. Вскоре появляется Ми Ра, которая была в одной группе с Джин А, и которая ненавидит ее до глубины души. Смогут ли Purple снова петь вместе?
Доп. информация:
Релиз: группа GREEN TEA
Перевод: фансаб-группы Chocolate
Редакция субтитров: Amalfy, Nas и elzanorge
Тайминг: Amalfy
Работа над звуком: Bonifatso
Оформление постера: pandora2177
Качество видео: DVDRip
Формат видео: AVI
Видео: XviD, 640х272, 2,35:1, 23,976 кадра/сек, 1150 Кбит/сек
Аудио: MP3, 44,1 КГц, 192 Кбит/сек, 2 канала
ОСТ к фильму Замечательное радио

MediaInfo

Общее
Полное имя : F:\Видео\Wonderful Radio 2012_DVO_GREEN TEA.avi
Формат : AVI
Формат/Информация : Audio Video Interleave
Размер файла : 1,15 Гбайт
Продолжительность : 2 ч. 1 м.
Общий поток : 1351 Кбит/сек
Программа кодирования : VirtualDubMod 1.5.10.2 (build 2540/release)
Библиотека кодирования : VirtualDubMod build 2540/release
Видео
Идентификатор : 0
Формат : MPEG-4 Visual
Профиль формата : Advanced Simple@L5
Параметр BVOP формата : 2
Параметр QPel формата : Нет
Параметр GMC формата : Без точки перехода
Параметр матрицы формата : Default (H.263)
Режим смешивания : Сжатый битовый поток
Идентификатор кодека : XVID
Идентификатор кодека/Подсказка : XviD
Продолжительность : 2 ч. 1 м.
Битрейт : 1150 Кбит/сек
Ширина : 640 пикселей
Высота : 272 пикселя
Соотношение сторон : 2,35:1
Частота кадров : 23,976 кадра/сек
Цветовое пространство : YUV
Субдискретизация насыщенности : 4:2:0
Битовая глубина : 8 бит
Тип развёртки : Прогрессивная
Метод сжатия : С потерями
Бит/(Пиксели*Кадры) : 0.275
Размер потока : 1001 Мбайт (85%)
Библиотека кодирования : XviD 1.0.3 (UTC 2004-12-20)
Аудио
Идентификатор : 1
Формат : MPEG Audio
Версия формата : Version 1
Профиль формата : Layer 3
Идентификатор кодека : 55
Идентификатор кодека/Подсказка : MP3
Продолжительность : 2 ч. 1 м.
Вид битрейта : Постоянный
Битрейт : 192 Кбит/сек
Каналы : 2 канала
Частота : 44,1 КГц
Метод сжатия : С потерями
Размер потока : 167 Мбайт (14%)
Выравнивание : Разделение по промежуткам
Продолжительность промежутка : 42 мс. (1,00 видеокадр)
Время предзагрузки промежутка : 500 мс.

Скриншот c названием фильма

Скриншоты





[Профиль] [ЛС]

>^_^<

Стаж: 3 года 10 месяцев

Сообщений: 11

Пост 29-Янв-2013 17:43 (спустя 9 дней)

[Цитировать]

Хороший фильм, приятная атмосфера! 5+

_________________
[Профиль] [ЛС]

Stacey-Susy

Стаж: 3 года 10 месяцев

Сообщений: 51

Пост 30-Янв-2013 16:20 (спустя 22 часа)

[Цитировать]

А меня вдохновил на мою давнею мечту....Написать песни и оформить их в сборник....Так что процесс запущен, благодаря "волшебному пендалю" в виде этого фильма.
За что спасибо всем, кто над ним работал! Особенно за озвучку!
[Профиль] [ЛС]

AlexStarRu

Стаж: 3 года 9 месяцев

Сообщений: 149

Пост 18-Дек-2013 18:50 (спустя 10 месяцев 19 дней)

[Цитировать]

Классный фильм. Пересмотрел второй раз с большим удовольствием.
[Профиль] [ЛС]

cccp

Стаж: 3 года

Сообщений: 32

Пост 19-Дек-2013 05:40 (спустя 10 часов)

[Цитировать]

Встаньте плииз на раздачу
А кстати, озвучку отдельно можно где скачать?
[Профиль] [ЛС]

Mira2slava

Стаж: 2 года 2 месяца

Сообщений: 14

Пост 17-Ноя-2014 12:35 (спустя 10 месяцев 29 дней)

[Цитировать]

Спасибо ,отличный фильм!
[Профиль] [ЛС]
Показать сообщения:    
Ответить на тему

Текущее время: Сегодня 08:53

Часовой пояс: GMT



Вы не можете начинать темы
Вы не можете отвечать на сообщения
Вы не можете редактировать свои сообщения
Вы не можете удалять свои сообщения
Вы не можете голосовать в опросах
Вы не можете прикреплять файлы к сообщениям
Вы не можете скачивать файлы