Жалобы на работу трекера ! прошу сюда :)

Слишком прекрасна для меня / Моя прекрасная девушка / My Lovable Girl [16/16] (Пак Хён Ги) [2014, романтика, HDTVRip] [360p] DVO GREEN TEA

Страницы :  1, 2, 3  След.

Ответить на тему
 
Автор Сообщение

Klёпa ®

Стаж: 3 года 3 месяца

Сообщений: 906

Пост 20-Сен-2014 22:33

[Цитировать]

Слишком прекрасна для меня (Моя прекрасная девушка)
My Lovable Girl (She's So Lovable / Too Lovely Girl for Me)

Год выпуска: 2014
Страна: Южная Корея
Жанр: мелодрама
Продолжительность: 16 серий по ~60 мин.
Серий: 1-16 (16)-Озвучивание: Двухголосое (закадровое) Константин Романов и Ольга Гринтиева
Сэмпл: https://yadi.sk/i/wgmVGVkEbaU72-Режиссер: Пак Хён Ги (Park Hyung Ki / 박형기)
В ролях:
Рейн (Bi / 비) - Ли Хён Ук
Кристал (Krystal Jung / 크리스탈 정) - Юн Се На
Чха Е Рён (Cha Ye Ryun / 차예련) - Shin Hae Yoon
Эль (L / 엘) - Си У
Пак Ён Гю (Park Young Kyu / 박영규) - Ли Чжон Хо (отец Хён Ука)
Ким Хэ Ын (Kim Hye Eun / 김혜은) - О Хи Сон (мачеха Хён Ука)
Ким Джин У (Kim Jin Woo / 김진우) - Со Дже Ён
На Хэ Рён (Na Hae Ryung / 나해령) - Ю Ра Ым
Ким Ги Пан (Kim Ki Bang / 김기방) - Ю Сан Бон
и др.-Описание:
Это история мужчины, который потерял свою девушку из-за несчастного случая и который в конечном итоге влюбляется в младшую сестру своей бывшей девушки Се Ну. Рейн будет играть роль Хен Ука, директора развлекательного агентства, композитора и продюсера, но живущего с эмоциональным багажом прошлой любви. Несмотря на то, что он кажется равнодушным ко всему на свете, на самом деле у него глубокая и чувствительная душа.-Доп. информация:
Релиз группы GREEN TEA
Перевод: фансаб-группа "MAНИЯ"
Работа со звуком: Ольга Гринтиева
Оформление постера: Роман NovA_JKE-Качество: HDTVRip
Формат: AVI
Видео кодек: XviD
Аудио кодек: MP3
Видео: 624х352, ~1260 Кбит/с, 23.976 fps
Аудио: 48 kHz, 192 Кбит/c, 2 канала
Ост к дораме: Слишком прекрасна для меня
!!! Альтернативная раздача: 1080p
!!! Альтернативная раздача: 720p
03.12.2014 - добавлена 16 серия (заключительная).

MediaInfo

Код:
General
Complete name                            : [GREEN TEA] My.Lovable.Girl_E01.avi
Format                                   : AVI
Format/Info                              : Audio Video Interleave
File size                                : 620 MiB
Duration                                 : 59mn 21s
Overall bit rate                         : 1 461 Kbps
Movie name                               : Слишком прекрасна для меня / My Lovable Girl (2014)
Writing application                      : VirtualDubMod 1.5.10.2 (build 2542/release)
Writing library                          : VirtualDubMod build 2542/release
Video
ID                                       : 0
Format                                   : MPEG-4 Visual
Format profile                           : Advanced Simple@L5
Format settings, BVOP                    : 2
Format settings, QPel                    : No
Format settings, GMC                     : No warppoints
Format settings, Matrix                  : Default (MPEG)
Codec ID                                 : XVID
Codec ID/Hint                            : XviD
Duration                                 : 59mn 21s
Bit rate                                 : 1 260 Kbps
Width                                    : 624 pixels
Height                                   : 352 pixels
Display aspect ratio                     : 16:9
Frame rate                               : 23.976 fps
Color space                              : YUV
Chroma subsampling                       : 4:2:0
Bit depth                                : 8 bits
Scan type                                : Progressive
Compression mode                         : Lossy
Bits/(Pixel*Frame)                       : 0.239
Stream size                              : 535 MiB (86%)
Writing library                          : XviD 1.2.1 (UTC 2008-12-04)
Audio
ID                                       : 1
Format                                   : MPEG Audio
Format version                           : Version 1
Format profile                           : Layer 3
Codec ID                                 : 55
Codec ID/Hint                            : MP3
Duration                                 : 59mn 21s
Bit rate mode                            : Constant
Bit rate                                 : 192 Kbps
Channel(s)                               : 2 channels
Sampling rate                            : 48.0 KHz
Compression mode                         : Lossy
Stream size                              : 81.5 MiB (13%)
Alignment                                : Aligned on interleaves
Interleave, duration                     : 42 ms (1.00 video frame)
Interleave, preload duration             : 504 ms
Title                                    : GREEN TEA DVO

Скриншоты




Последний раз редактировалось: Klёпa (2014-12-03 00:52), всего редактировалось 13 раз(а)
[Профиль] [ЛС]

Tainted-love

Стаж: 3 года

Сообщений: 1180

Пост 21-Сен-2014 18:59 (спустя 20 часов)

[Цитировать]

Очень оперативно! Спасибо за работу... удачки.
[Профиль] [ЛС]

Klёпa ®

Стаж: 3 года 3 месяца

Сообщений: 906

Пост 26-Сен-2014 18:29 (спустя 4 дня)

[Цитировать]

Добавлены 3-4 серии!
[Профиль] [ЛС]

Tainted-love

Стаж: 3 года

Сообщений: 1180

Пост 27-Сен-2014 21:09 (спустя 1 день 2 часа)

[Цитировать]

Ой... спасибочки огромное!!!!!!!!!!!!!!!!
[Профиль] [ЛС]

Tainted-love

Стаж: 3 года

Сообщений: 1180

Пост 03-Окт-2014 20:11 (спустя 5 дней)

[Цитировать]

Удачи в работе!
[Профиль] [ЛС]

Klёпa ®

Стаж: 3 года 3 месяца

Сообщений: 906

Пост 03-Окт-2014 20:56 (спустя 44 минуты)

[Цитировать]

Добавлена 5 серия!
[Профиль] [ЛС]

Klёпa ®

Стаж: 3 года 3 месяца

Сообщений: 906

Пост 05-Окт-2014 00:45 (спустя 1 день 3 часа)

[Цитировать]

Добавлена 6 серия!
[Профиль] [ЛС]

Frenka

Стаж: 3 года 2 месяца

Сообщений: 8

Пост 05-Окт-2014 18:35 (спустя 17 часов)

[Цитировать]

Почему выскакивает, что отказано в доступе?
С другими релизами такого не происходит.

_________________
[Профиль] [ЛС]

Klёпa ®

Стаж: 3 года 3 месяца

Сообщений: 906

Пост 05-Окт-2014 19:27 (спустя 52 минуты)

[Цитировать]

Frenka, хм, а что вы делаете не так, как в других релизах?)) Раздача рабочая, это видно по сидам/пирам и скоростью обмена данными между ними. Эмн... и "кем" именно отказано в доступе? т.е. от "кого" сообщение bw
[Профиль] [ЛС]

Klёпa ®

Стаж: 3 года 3 месяца

Сообщений: 906

Пост 13-Окт-2014 20:13 (спустя 8 дней)

[Цитировать]

Добавлена 7 серия!
[Профиль] [ЛС]

manuric84

Стаж: 2 года 9 месяцев

Сообщений: 2

Пост 14-Окт-2014 11:29 (спустя 15 часов)

[Цитировать]

Спасибочки. Жду с нетерпением 8 серию. Успехов в вашем не легком труде. Легкого перевода.
[Профиль] [ЛС]

Tainted-love

Стаж: 3 года

Сообщений: 1180

Пост 14-Окт-2014 20:47 (спустя 9 часов)

[Цитировать]

Очень спасибо!!!
[Профиль] [ЛС]

Klёпa ®

Стаж: 3 года 3 месяца

Сообщений: 906

Пост 15-Окт-2014 16:18 (спустя 19 часов)

[Цитировать]

Добавлена 8 серия!
[Профиль] [ЛС]

Klёпa ®

Стаж: 3 года 3 месяца

Сообщений: 906

Пост 17-Окт-2014 01:21 (спустя 1 день 9 часов)

[Цитировать]

Добавлена 9 серия!
[Профиль] [ЛС]

Frenka

Стаж: 3 года 2 месяца

Сообщений: 8

Пост 18-Окт-2014 16:38 (спустя 1 день 15 часов)

[Цитировать]

Frenka, хм, а что вы делаете не так, как в других релизах?)) Раздача рабочая, это видно по сидам/пирам и скоростью обмена данными между ними. Эмн... и "кем" именно отказано в доступе? т.е. от "кого" сообщение bw
В скачивании пишет: "Ошибка: отказано в доступе"

_________________
[Профиль] [ЛС]
Показать сообщения:    
Ответить на тему

Текущее время: Сегодня 05:56

Часовой пояс: GMT



Вы не можете начинать темы
Вы не можете отвечать на сообщения
Вы не можете редактировать свои сообщения
Вы не можете удалять свои сообщения
Вы не можете голосовать в опросах
Вы не можете прикреплять файлы к сообщениям
Вы не можете скачивать файлы