Жалобы на работу трекера ! прошу сюда :)

Кошки напрокат / Rent-a-cat / Rentaneko (Наоко Огигами / Naoko Ogigami) [2012, Япония, Лирическая комедия, DVDRip] DVO (GREEN TEA)

Ответить на тему
 
Автор Сообщение

pandora2177 ®

Стаж: 3 года 10 месяцев

Сообщений: 368

Пост 21-Янв-2013 08:24

[Цитировать]

КОШКИ НАПРОКАТ
Rent-a-cat / Rentaneko

-
Страна: Япония
Жанр: Лирическая комедия
Год выпуска: 2012
Продолжительность: 01:50:00
-
Перевод: двухголосый закадровый lama, spellhowler
СЭМПЛ: http://multi-up.com/811330
-
Cубтитры: нет
Оригинальная аудиодорожка: нет
Режиссер: Наоко Огигами / Naoko Ogigami
В ролях:
Микако Ичикава / Mikako Ichikawa
Рейко Кусамура / Reiko Kusamura
Кен Митсуиси / Ken Mitsuishi
Махо Ямада / Maho Yamada
Кей Танака / Kei Tanaka
Катсуя Кобаяси / Katsuya Kobayashi
Описание: Ходит по набережной одного японского города немного странная девушка с тележкой, полной разномастного кошачьего народца, и трубит в рупор: "Прока-ат кошек". Мальчишки зовут ее "кошачьей ведьмой" и драпают со всех ног - едва завидев. Соседка достает придирками... Родных и друзей нет - только кошки. Неужто она способна заработать себе на жизнь таким вот образом - и как это вообще возможно - сдавать и брать кошек в аренду?
Абсолютно японское - и абсолютно всечеловеческое кино, настоящий подарок всем котоманам - и всем тем, кто ценит "разумное, доброе, вечное"...
© Yaguarundi-Kotobastia
-
Доп. информация:
Перевод: Yaguarundi-Kotobastia
Создание рипа: Пеликан
Релиз группы GREEN TEA

-
Качество видео: DVDRip
Формат видео: AVI
Видео: 1421 Кбит/сек, 704*384 (1,85:1), в 23,976 кадра/сек, MPEG-4 Visual (XviD)
Аудио: 448 Кбит/сек, 48,0 КГц, 16 бит, 6 каналов, AC-3

MediaInfo

Формат : AVI
Формат/Информация : Audio Video Interleave
Размер файла : 1,44 Гбайт
Продолжительность : 1 ч. 50 м.
Общий поток : 1879 Кбит/сек
Программа кодирования : VirtualDubMod 1.5.10.2 (build 2540/release)
Библиотека кодирования : VirtualDubMod build 2540/release
Видео
Идентификатор : 0
Формат : MPEG-4 Visual
Профиль формата : Advanced Simple@L5
Параметр BVOP формата : Нет
Параметр QPel формата : Нет
Параметр GMC формата : Без точки перехода
Параметр матрицы формата : Выборочная
Идентификатор кодека : XVID
Идентификатор кодека/Подсказка : XviD
Продолжительность : 1 ч. 50 м.
Битрейт : 1421 Кбит/сек
Ширина : 704 пикселя
Высота : 384 пикселя
Соотношение сторон : 16:9
Частота кадров : 23,976 кадра/сек
Цветовое пространство : YUV
Субдискретизация насыщенности : 4:2:0
Битовая глубина : 8 бит
Тип развёртки : Прогрессивная
Метод сжатия : С потерями
Бит/(Пиксели*Кадры) : 0.219
Размер потока : 1,09 Гбайт (76%)
Библиотека кодирования : XviD 1.2.1 (UTC 2008-12-04)
Аудио
Идентификатор : 1
Формат : AC-3
Формат/Информация : Audio Coding 3
Расширение режима : CM (complete main)
Идентификатор кодека : 2000
Продолжительность : 1 ч. 50 м.
Вид битрейта : Постоянный
Битрейт : 448 Кбит/сек
Каналы : 6 каналов
Расположение каналов : Front: L C R, Side: L R, LFE
Частота : 48,0 КГц
Битовая глубина : 16 бит
Метод сжатия : С потерями
Размер потока : 353 Мбайт (24%)
Выравнивание : Разделение по промежуткам
Продолжительность промежутка : 42 мс. (1,00 видеокадр)
Время предзагрузки промежутка : 500 мс.

Скриншот c названием фильма

Скриншоты





[Профиль] [ЛС]

lenivaya10001

Стаж: 3 года 10 месяцев

Сообщений: 16

Пост 18-Фев-2013 03:16 (спустя 27 дней)

[Цитировать]

скоро заценим :)

_________________
верхняя это обиженная нижняя у которой нет хозяина
[Профиль] [ЛС]

lenivaya10002

Стаж: 3 года 9 месяцев

Сообщений: 37

Пост 02-Мар-2013 16:56 (спустя 12 дней)

[Цитировать]

2013-03-02 146 сидов 75 пиров и 0 отзывов :)))... ну люди)
посмотрел ...
у фильма есть беда - если вы не фетишист, писающийся от одного вида ненарисованных кошек, то вам, как и мне, будет сложно наблюдать первый час, без малого двухчасовой картины. Мне помогла не выключить, на первой половине, - шоколадная плитка, которую я потихоньку грыз(сосут леденцы, а шоколад только грызут!!!,-остальные трусливые извращенцы), пока бегунок VLC Portable не перевалит за 50%).
Вся первая половина перенасыщена неадекватом (ни одного вменяемого диалога .... вообще :))) ). Повторюсь - спасла шоколадка.
Вторая часть картины - ВСЯ ИНТЕРЕСНАЯ И СТОИТ ПРОСМОТРА!!!
Концовка напоминает пожеванный пакет от чипсов.
Куча халтуры во всех отношениях. Съемка - полная дешевка... как будто мне камеру дали и сказали: -" не тряси только камерой... Мотор...". Похоже, что эпизод с электронной торговлей акциями, придумал повар или музыкант.
Озвучка приемлемая (в одном месте проглотили момент в начале реплики гг тян... но там и так смысл понятен - легкое удивление).
Гг тян симпотичная.
Сжать бы первый час в 20 минут, не более, добавить хорошего оператора(а может и режиссера, я в этом не силен) и получилась бы ветхая четверочка.
А так шпроты с сахаром.

_________________
верхняя это обиженная нижняя у которой нет хозяина
[Профиль] [ЛС]
Показать сообщения:    
Ответить на тему

Текущее время: Сегодня 08:49

Часовой пояс: GMT



Вы не можете начинать темы
Вы не можете отвечать на сообщения
Вы не можете редактировать свои сообщения
Вы не можете удалять свои сообщения
Вы не можете голосовать в опросах
Вы не можете прикреплять файлы к сообщениям
Вы не можете скачивать файлы