Жалобы на работу трекера ! прошу сюда :)

Пугающий роман / Жуткая любовь / Spellbound / Eerie Romance / Chilling Romance (Хванг Ин Хо / In-ho Hwang) [2011, Южная Корея, Комедия, мелодрама, мистика, DVDRip] DVO GREEN TEA & КиНаТаН

Ответить на тему
 
Автор Сообщение

pandora2177 ®

Стаж: 3 года 10 месяцев

Сообщений: 368

Пост 21-Янв-2013 14:34

[Цитировать]

Пугающий роман
Жуткая любовь / Spellbound / Eerie Romance / Chilling Romance
Страна: Южная Корея
Жанр: Комедия, мелодрама, мистика
Год выпуска: 2011
Продолжительность: 01:53:21
Перевод: двухголосый закадровый pandora2177 & Олег Варганов
Cубтитры: нет
Режиссер: Хванг Ин Хо / In-ho Hwang
В ролях: Сон Ё Чжин, Мин-ки Ли, Пак Хеол Мин, Ким Хён Сок, Юн Чжи Мин
Описание: Йо Ри замкнутая и нелюдимая девушка, а все от того, что у нее есть дар… а может проклятие — с детства она может видеть призраков. Из-за этого с людьми, находящимся рядом с ней, происходят очень неприятные случаи. Самый обычный фокусник Чжо Го встречает ее на одном из своих выступлений и вместе они организуют волшебное шоу ужасов, которое имеет колоссальный успех. Вскоре, молодой человек влюбляется в девушку, да только ее призраки совсем от этого не в восторге…
Доп. информация: Релиз-группа "GREEN TEA" и студия КиНаТан
Озвучено по переводу фансаб-группы Pathos Loonies
Работа над звуком: Bermud
Создание рипа: WithPa

Сэмпл: http://www.sendspace.com/file/pfeiit
Качество видео: DVDRip
Формат видео: MKV
Видео: AVC, 720х404, 16:9, 29,970 кадров/сек, 1500 Кбит/сек
Аудио: АС3, 48,0 КГц, 448 Кбит/сек, 6 каналов
ОСТ к фильму Пугающий роман

MediaInfo

Формат : Matroska
Версия формата : Version 2
Размер файла : 1,54 Гбайт
Продолжительность : 1 ч. 53 м.
Общий поток : 1948 Кбит/сек
Дата кодирования : UTC 2012-04-24 06:10:55
Программа кодирования : mkvmerge v5.5.0 ('Healer') built on Apr 6 2012 21:43:24
Библиотека кодирования : libebml v1.2.3 + libmatroska v1.3.0
Видео
Идентификатор : 1
Формат : AVC
Формат/Информация : Advanced Video Codec
Профиль формата : High@L3.1
Параметр CABAC формата : Да
Параметр ReFrames формата : 8 кадров
Режим смешивания : Header stripping
Идентификатор кодека : V_MPEG4/ISO/AVC
Продолжительность : 1 ч. 53 м.
Битрейт : 1500 Кбит/сек
Ширина : 720 пикселей
Высота : 404 пикселя
Соотношение сторон : 16:9
Частота кадров : 29,970 кадров/сек
Цветовое пространство : YUV
Субдискретизация насыщенности : 4:2:0
Битовая глубина : 8 бит
Тип развёртки : Прогрессивная
Бит/(Пиксели*Кадры) : 0.172
Размер потока : 1,16 Гбайт (75%)
Библиотека кодирования : x264 core 120 r2164 da19765
Настройки программы : cabac=1 / ref=8 / deblock=1:0:0 / analyse=0x3:0x133 / me=umh / subme=9 / psy=1 / psy_rd=1.00:0.00 / mixed_ref=1 / me_range=32 / chroma_me=1 / trellis=1 / 8x8dct=1 / cqm=0 / deadzone=21,11 / fast_pskip=0 / chroma_qp_offset=-2 / threads=3 / sliced_threads=0 / nr=0 / decimate=1 / interlaced=0 / bluray_compat=0 / constrained_intra=0 / bframes=3 / b_pyramid=2 / b_adapt=2 / b_bias=0 / direct=3 / weightb=1 / open_gop=0 / weightp=2 / keyint=250 / keyint_min=25 / scenecut=40 / intra_refresh=0 / rc_lookahead=40 / rc=2pass / mbtree=1 / bitrate=1500 / ratetol=1.0 / qcomp=0.60 / qpmin=10 / qpmax=51 / qpstep=4 / cplxblur=20.0 / qblur=0.5 / ip_ratio=1.40 / aq=1:1.00
Default : Да
Forced : Нет
Аудио
Идентификатор : 2
Формат : AC-3
Формат/Информация : Audio Coding 3
Расширение режима : CM (complete main)
Режим смешивания : Header stripping
Идентификатор кодека : A_AC3
Продолжительность : 1 ч. 53 м.
Вид битрейта : Постоянный
Битрейт : 448 Кбит/сек
Каналы : 6 каналов
Расположение каналов : Front: L C R, Side: L R, LFE
Частота : 48,0 КГц
Битовая глубина : 16 бит
Метод сжатия : С потерями
Задержка видео : 6 с. 0 мс.
Размер потока : 363 Мбайт (23%)
Язык : Russian
Default : Да
Forced : Нет

Скриншот c названием фильма

Скриншоты




[Профиль] [ЛС]

rolanna

Стаж: 3 года 10 месяцев

Сообщений: 4

Пост 25-Янв-2013 21:06 (спустя 4 дня)

[Цитировать]

Мне понравилось)Свежо и забавно))
[Профиль] [ЛС]

Татьяна

Стаж: 3 года 10 месяцев

Сообщений: 35

Откуда: Омск

Пост 27-Янв-2013 08:00 (спустя 1 день 10 часов)

[Цитировать]

Да, действительно фильм забавный) Местами смешно, местами страшновато. Советую его тем, кто не смотрел, посмотреть. Вы не зря потратите свое время)))

_________________
Как сложится судьба, никто не знает. Живи свободно и не бойся перемен. Когда ГОСПОДЬ чего-то забирает, не упусти того, что он даёт взамен.
[Профиль] [ЛС]

Эрька

Стаж: 3 года 10 месяцев

Сообщений: 12

Откуда: Молдова

Пост 25-Фев-2013 19:49 (спустя 29 дней)

[Цитировать]

Довольно интересный)
[Профиль] [ЛС]

Lee_Soa

Стаж: 3 года 2 месяца

Сообщений: 1

Откуда: Украина, Днепропетровск

Пост 07-Окт-2013 12:25 (спустя 7 месяцев 9 дней)

[Цитировать]

супер фильм!)) люблю такое любовь+мистика))
[Профиль] [ЛС]

JL-BS

Стаж: 2 года 11 месяцев

Сообщений: 12

Пост 16-Янв-2014 21:05 (спустя 3 месяца 9 дней)

[Цитировать]

что-то мне описание напоминает... а дорамы такой случаем нет?
[Профиль] [ЛС]

лира1

Стаж: 2 года 1 месяц

Сообщений: 1

Пост 02-Янв-2015 17:26 (спустя 11 месяцев 16 дней)

[Цитировать]

есть
[Профиль] [ЛС]
Показать сообщения:    
Ответить на тему

Текущее время: Сегодня 03:03

Часовой пояс: GMT



Вы не можете начинать темы
Вы не можете отвечать на сообщения
Вы не можете редактировать свои сообщения
Вы не можете удалять свои сообщения
Вы не можете голосовать в опросах
Вы не можете прикреплять файлы к сообщениям
Вы не можете скачивать файлы