Жалобы на работу трекера ! прошу сюда :)

Она, китаянка / She, a Chinese (Xiaolu Guo) [2009, драма, DVDRip] [384p] DVO GREEN TEA

Ответить на тему
 
Автор Сообщение

Klёпa ®

Стаж: 3 года 2 месяца

Сообщений: 906

Пост 21-Окт-2014 09:24

[Цитировать]

Она, китаянка / She, a Chinese

Год выпуска: 2009
Страна: Германия, Франция, Великобритания
Жанр: драма (не рекомендуется детям до 16)
Продолжительность: 01:38:43-Перевод: двухголосый (закадровый) Ustas Alexis, pandora2177
Сэмпл: https://yadi.sk/-
Режиссер: Сяолу Го (Xiaolu Guo)
В ролях: Лу Хуанг, Вэй Йи Бо, Джеффри Хатчингс, Крис Риман, Hsinyi Liu, Джеймс Парри и др.-Описание:
Это история о Мей, молодой девушке, и ее пути с Востока на Запад после побега из родной китайской деревни. Начав свой путь в Чунцине, после увольнения с завода, Мей вскоре улетает в Лондон и выходит замуж, где и начинается ее новая жизнь. © Кошкин-Доп. информация:
Релиз подготовлен группой "GREEN TEA"
Перевод: Кошкин
Оформление постера: NovA_JKE-Качество: DVDRip
Формат: AVI
Видео кодек: XviD
Аудио кодек: AC-3
Видео: 704x384 (16:9), 1532 Kbps, 25.0 fps
Аудио: 48.0 KHz, 448 Kbps, 5.1 (Front: L C R, Side: L R, LFE), RUS
Субтитры: частичный хардсаб (в тех местах, где говорят на китайском, имеется английский хардсаб)

MediaInfo

Код:
General
Format                                   : AVI
Format/Info                              : Audio Video Interleave
File size                                : 1.37 GiB
Duration                                 : 1h 38mn
Overall bit rate                         : 1 989 Kbps
Video
ID                                       : 0
Format                                   : MPEG-4 Visual
Format profile                           : Advanced Simple@L5
Format settings, BVOP                    : 2
Format settings, QPel                    : No
Format settings, GMC                     : No warppoints
Format settings, Matrix                  : Default (MPEG)
Codec ID                                 : XVID
Codec ID/Hint                            : XviD
Duration                                 : 1h 38mn
Bit rate                                 : 1 532 Kbps
Width                                    : 704 pixels
Height                                   : 384 pixels
Display aspect ratio                     : 1.85:1
Frame rate                               : 25.000 fps
Color space                              : YUV
Chroma subsampling                       : 4:2:0
Bit depth                                : 8 bits
Scan type                                : Progressive
Compression mode                         : Lossy
Bits/(Pixel*Frame)                       : 0.227
Stream size                              : 1.06 GiB (77%)
Writing library                          : XviD 1.2.1 (UTC 2008-12-04)
Audio
ID                                       : 1
Format                                   : AC-3
Format/Info                              : Audio Coding 3
Mode extension                           : CM (complete main)
Format settings, Endianness              : Big
Codec ID                                 : 2000
Duration                                 : 1h 38mn
Source duration                          : 1h 38mn
Bit rate mode                            : Constant
Bit rate                                 : 448 Kbps
Channel(s)                               : 6 channels
Channel positions                        : Front: L C R, Side: L R, LFE
Sampling rate                            : 48.0 KHz
Bit depth                                : 16 bits
Compression mode                         : Lossy
Stream size                              : 316 MiB (23%)
Alignment                                : Aligned on interleaves
Interleave, duration                     : 40 ms (1.00 video frame)

Скриншоты

[Профиль] [ЛС]
Показать сообщения:    
Ответить на тему

Текущее время: Сегодня 18:30

Часовой пояс: GMT



Вы не можете начинать темы
Вы не можете отвечать на сообщения
Вы не можете редактировать свои сообщения
Вы не можете удалять свои сообщения
Вы не можете голосовать в опросах
Вы не можете прикреплять файлы к сообщениям
Вы не можете скачивать файлы