Жалобы на работу трекера ! прошу сюда :)

Вой / Howling / The Killer Wolf (Ха Ю / Ha Yu) [2012 г., детектив, триллер, драма, DVDRip] DVO GREEN TEA

Ответить на тему
 
Автор Сообщение

Амальфи ®

Стаж: 3 года 10 месяцев

Сообщений: 264

Пост 21-Янв-2013 16:28

[Цитировать]

Вой
Howling / The Killer Wolf

Год выпуска: 2012
Страна: Южная Корея
Жанр: детектив, триллер, драма
Продолжительность: 01:53:00
Перевод: Двухголосый закадровыйpandora2177 и Олег Варганов
Режиссер: Ха Ю / Ha Yu
В ролях: Сонг Канг-хо, Ли На-юнг, Шин Джеонг-кун, Ли Сеонг-мин, Гвон Тэ-вон, Чо Юнг-джин
Описание:
Сюжет вращается вокруг Сан Кила, детектива со стажем и Ён Ян, молодой девушки, которая только начала работать в этой сфере. Вместе им предстоит раскрыть тайну страшных убийств, которые начали происходить не так давно, но уже успели наделать шума, ведь на телах жертв укусы дикого животного.
Доп. информация:
Совместный релиз GREEN TEA & КиНаТан
Перевод: elzanorge
Создание рипа: WithPa
Оформление постера: MishaZ
Качество: DVDRip
Формат: AVI
Видео кодек: XviD
Аудио кодек: MP3
Видео: XviD, 720х304, 2,35:1, 24,000 кадра/сек, 1795 Кбит/сек
Аудио: MP3, 48,0 Гц, 192 кб/с, 2 канала

MediaInfo

Формат : AVI
Формат/Информация : Audio Video Interleave
Размер файла : 1,59 Гбайт
Продолжительность : 1 ч. 53 м.
Общий поток : 1996 Кбит/сек
Программа кодирования : VirtualDubMod 1.5.10.2 (build 2540/release)
Библиотека кодирования : VirtualDubMod build 2540/release
Видео
Идентификатор : 0
Формат : MPEG-4 Visual
Профиль формата : Advanced Simple@L5
Параметр BVOP формата : 2
Параметр QPel формата : Нет
Параметр GMC формата : Без точки перехода
Параметр матрицы формата : Default (MPEG)
Режим смешивания : Сжатый битовый поток
Идентификатор кодека : XVID
Идентификатор кодека/Подсказка : XviD
Продолжительность : 1 ч. 53 м.
Битрейт : 1795 Кбит/сек
Ширина : 720 пикселей
Высота : 304 пикселя
Соотношение сторон : 2,35:1
Частота кадров : 24,000 кадра/сек
Цветовое пространство : YUV
Субдискретизация насыщенности : 4:2:0
Битовая глубина : 8 бит
Тип развёртки : Прогрессивная
Метод сжатия : С потерями
Бит/(Пиксели*Кадры) : 0.342
Размер потока : 1,43 Гбайт (90%)
Библиотека кодирования : XviD 64
Аудио
Идентификатор : 1
Формат : MPEG Audio
Версия формата : Version 1
Профиль формата : Layer 3
Режим : Joint stereo
Идентификатор кодека : 55
Идентификатор кодека/Подсказка : MP3
Продолжительность : 1 ч. 53 м.
Вид битрейта : Постоянный
Битрейт : 192 Кбит/сек
Каналы : 2 канала
Частота : 48,0 КГц
Метод сжатия : С потерями
Размер потока : 156 Мбайт (10%)
Выравнивание : Разделение по промежуткам
Продолжительность промежутка : 42 мс. (1,00 видеокадр)
Время предзагрузки промежутка : 500 мс.

Скриншот с названием фильма

Скриншоты

[Профиль] [ЛС]

abbas

Стаж: 3 года

Сообщений: 9

Пост 09-Окт-2014 09:29 (спустя 1 год 8 месяцев)

[Цитировать]

поставти на раздачу плииииз
[Профиль] [ЛС]

Klёпa

Стаж: 3 года 2 месяца

Сообщений: 906

Пост 09-Окт-2014 16:41 (спустя 7 часов)

[Цитировать]

abbas, пожалуйста)) Только потом посидируйте вы, ок?
[Профиль] [ЛС]

GSanses

Стаж: 2 года

Сообщений: 56

Пост 19-Июн-2015 16:55 (спустя 8 месяцев 10 дней)

[Цитировать]

Фильм очень понравился, советую посмотреть.
[Профиль] [ЛС]
Показать сообщения:    
Ответить на тему

Текущее время: Сегодня 02:04

Часовой пояс: GMT



Вы не можете начинать темы
Вы не можете отвечать на сообщения
Вы не можете редактировать свои сообщения
Вы не можете удалять свои сообщения
Вы не можете голосовать в опросах
Вы не можете прикреплять файлы к сообщениям
Вы не можете скачивать файлы