Жалобы на работу трекера ! прошу сюда :)

Адмирал: Битва за Мён Рян / Roaring Currents / Myeong ryang - Huiori Bada (Kim Han Min) [2014, костюмированая драма, экшн, история, военный, биография, WEBRip] [RAW] [304p] VO GREEN TEA

Ответить на тему
 
Автор Сообщение

Klёпa ®

Стаж: 3 года 1 месяц

Сообщений: 906

Пост 14-Янв-2015 20:50

[Цитировать]

Адмирал: Битва за Мён Рян (Ревущие потоки / Ревущие течения)
Roaring Currents / Myeong ryang - Huiori Bada

Год выпуска: 2014
Страна: Южная Корея
Жанр: экшн, костюмированная драма, история, военный, биография
Продолжительность: 02:08:32-Перевод одноголосый (закадровый): Дмитрий Познанский
Сэмпл: https://yadi.sk/-Режиссер: Ким Хан Мин (Kim Han Min / 김한민)
В ролях:
Чхве Мин Сик (Choi Min Sik / 최민식) - Admiral Yi Sun Shin
Рю Сын Рён (Ryu Seung Ryong / 류승룡) - Admiral Gurujima
Чжо Джин Ун (Jo Jin Woong / 조진웅) - Wakizaka
Джин Гу (Jin Goo / 진구) - Im Joon Young
Ли Чжон Хён (Lee Jung Hyun / 이정현) - Jung's wife
Гвон Юль (Kwon Yool / 권율)
Ким Мён Гон (Kim Myung Gon / 김명곤)
Но Мин У (No Min Woo / 노민우)
Ким Тхэ Хун (Kim Tae Hoon / 김태훈)
Отани Рёхей (Otani Ryohei / 大谷慶彦)
Пак Бо Гом (Park Bo Gum / 박보검)
Ли Сын Джун (Lee Seung Joon / 이승준)
Ким Вон Хэ (Kim Won Hae / 김원해)
и др.-Описание:
Фильм рассказывает об известной битве за Мён Рян, состоявшейся в 1597 году во время японского вторжения в Корею. Тогда культовому адмиралу Ли Сунсину удалось уничтожить 133 японских боевых корабля и около 200 вспомогательных судов, имея флот всего в 13 кораблей и переменить ход войны.
Немного предыстории.
Весной 1592 года японский полководец Тоётоми Хидэёси высадился на территории Корейского полуострова. У себя дома Хидэёси объединил страну и поставил точку в гражданской войне; теперь ему было необходимо срочно занять десятки тысяч попивших кровушки самураев удачной заграничной кампанией. Корейское королевство Чосон являлись на тот момент вассалами Китая, поэтому корейцам было предложено отказаться от сопротивления и пропустить японские войска через свои территории без боя.
Понимая, что грабежей и мародерства не избежать, корейцы отказались и были разбиты за пару недель. А вот масштабного столкновения китайцев и японцев так и не состоялось. В течении нескольких лет стороны вели дипломатические переговоры, докладывая в генштаб о том, что враг побежден, но реальных результатов это не приносило.
В 1597 году, когда Хидэёси вдруг понял: китайцы уверены, сдаваться должен он, а не они, сёгун вспылил и объявил вторую военную кампанию. Про Китай он на тот момент уже забыл, главной целью полководца стало окончательное покорение Корейского полуострова. 140 000 самураев на 200 кораблях под началом молодого сегунского племянника Кобаякавы высадились на южном побережье и вступили в затяжную военную кампанию. 27 августа 1597 года корейский флот оказался полностью уничтожен в битве при Чхильчонняне. Корейский адмирал погиб, спаслись только тринадцать 20-пушечных кораблей-пханосоксонов, которые успешно бежали с поля боя.
И, вот здесь в историю вступает исторический персонаж, которого в фильме играет Чхве Мин-Сик. Великий флотоводец Ли Сунсин, не проигравший за свою жизнь ни единой битвы (выиграл, кстати, 23). Точнее будет сказать, что вступил он в военные действия достаточно давно. Ли Сунсин — выходец из опального армейского рода — показал себя талантливым стратегом и харизматичным лидером во время первой японо-корейской кампании, поэтому злопыхатели добились смещения успешного командира с поста адмирала и заключения его в тюрьму. Когда корейский флот остался без… флота, Ли Сунсина выпустили из застенков и снова назначили главным.
26 октября 1597 года в битве при Мёнрян 13 оставшихся корейских пханоксона на голову разбили японский флот, состоящий из 133 боевых кораблей и около 200 вспомогательных судов.
© kinopoisk-Доп. информация:
Релиз подготовлен группой GREEN TEA
Перевод: Виктория Широкова
Работа со звуком: Ольга Гринтиева
Оформление постера: Константин Романов-Качество: WEBRip
Формат: AVI
Видео кодек: XviD
Аудио кодек: MP3
Видео: 720х304, 1420 Кбит/с, 23.976 fps
Аудио: 48 kHz, 192 Кбит/c, 2 канала
!!! Альтернативная раздача: 720p (MKV, H264)
ОСТ к фильму Адмирал: Битва за Мён Рян

MediaInfo

Код:
General
Format                                   : MPEG-4 Visual
Format profile                           : Advanced Simple@L5
Format settings, BVOP                    : 2
Format settings, QPel                    : No
Format settings, GMC                     : No warppoints
Format settings, Matrix                  : Default (MPEG)
Codec ID                                 : XVID
Codec ID/Hint                            : XviD
Duration                                 : 2h 8mn
Bit rate                                 : 1 420 Kbps
Width                                    : 720 pixels
Height                                   : 304 pixels
Display aspect ratio                     : 2.35:1
Frame rate                               : 23.976 fps
Color space                              : YUV
Chroma subsampling                       : 4:2:0
Bit depth                                : 8 bits
Scan type                                : Progressive
Compression mode                         : Lossy
Bits/(Pixel*Frame)                       : 0.271
Stream size                              : 1.28 GiB (100%)
Writing library                          : XviD 1.2.1 (UTC 2008-12-04)
Audio
Format                                   : MPEG Audio
Format version                           : Version 1
Format profile                           : Layer 3
Mode                                     : Joint stereo
Codec ID                                 : 55
Codec ID/Hint                            : MP3
Duration                                 : 2h 8mn
Bit rate mode                            : Constant
Bit rate                                 : 192 Kbps
Channel(s)                               : 2 channels
Sampling rate                            : 48.0 KHz
Compression mode                         : Lossy
Stream size                              : 177 MiB (12%)
Alignment                                : Aligned on interleaves
Interleave, duration                     : 42 ms (1.00 video frame)
Interleave, preload duration             : 504 ms

Скриншоты




Последний раз редактировалось: Klёпa (2015-01-17 16:31), всего редактировалось 1 раз
[Профиль] [ЛС]

Барсукова Ольга

Стаж: 2 года 7 месяцев

Сообщений: 4

Пост 17-Янв-2015 09:05 (спустя 2 дня 12 часов)

[Цитировать]

Огромное спасибо! Фильм великолепный! Озвучка шикарная! Вы молодцы!
[Профиль] [ЛС]

PhoenixYuong

Стаж: 3 года 9 месяцев

Сообщений: 320

Откуда: Беларусь

Пост 17-Янв-2015 20:33 (спустя 11 часов)

[Цитировать]

Спасибо всем, кто работал над фильмом!!!! Потому что такие шедевральные картины не должны оставаться не увиденными!!!! Очередной раз убеждаюсь в прекрасной падаче исторического фильма, потому что корейцы умеют преподнести свою историю красиво. С каждым разом все лучше и лучше спец. эффекты, что не может не радовать!))
Еще многое хотелось бы сказать, но скажу просто еще раз
"Спасибо всем, кто работал над фильмом!!!!!!!!!!!!!!!"

_________________
[Профиль] [ЛС]

Auberto

Стаж: 3 года

Сообщений: 14

Пост 25-Янв-2015 17:35 (спустя 7 дней)

[Цитировать]

Ребята, огромное спасибо за отменный воскресный вечер!!
Озвучка просто сказка и фильм сказочно красивый и реалистичный.
[Профиль] [ЛС]

Azem

Стаж: 2 года 11 месяцев

Сообщений: 2

Пост 11-Июл-2015 11:23 (спустя 5 месяцев 16 дней)

[Цитировать]

а многоголосый перевод будет?
[Профиль] [ЛС]
Показать сообщения:    
Ответить на тему

Текущее время: Сегодня 09:39

Часовой пояс: GMT



Вы не можете начинать темы
Вы не можете отвечать на сообщения
Вы не можете редактировать свои сообщения
Вы не можете удалять свои сообщения
Вы не можете голосовать в опросах
Вы не можете прикреплять файлы к сообщениям
Вы не можете скачивать файлы