Жалобы на работу трекера ! прошу сюда :)

Адмирал: Битва за Мён Рян / Roaring Currents / Myeong ryang - Huiori Bada (Kim Han Min) [2014, костюмированая драма, экшн, история, военный, биография, WEBRip] [RAW] [720p] VO GREEN TEA

Страницы :  1, 2  След.

Ответить на тему
 
Автор Сообщение

Klёпa ®

Стаж: 3 года 2 месяца

Сообщений: 906

Пост 14-Янв-2015 21:07

[Цитировать]

Адмирал: Битва за Мён Рян (Ревущие потоки / Ревущие течения)
Roaring Currents / Myeong ryang - Huiori Bada

Год выпуска: 2014
Страна: Южная Корея
Жанр: экшн, костюмированная драма, история, военный, биография
Продолжительность: 02:08:32-Перевод одноголосый (закадровый): Дмитрий Познанский
Сэмпл: https://yadi.sk/-Режиссер: Ким Хан Мин (Kim Han Min / 김한민)
В ролях:
Чхве Мин Сик (Choi Min Sik / 최민식) - Admiral Yi Sun Shin
Рю Сын Рён (Ryu Seung Ryong / 류승룡) - Admiral Gurujima
Чжо Джин Ун (Jo Jin Woong / 조진웅) - Wakizaka
Джин Гу (Jin Goo / 진구) - Im Joon Young
Ли Чжон Хён (Lee Jung Hyun / 이정현) - Jung's wife
Гвон Юль (Kwon Yool / 권율)
Ким Мён Гон (Kim Myung Gon / 김명곤)
Но Мин У (No Min Woo / 노민우)
Ким Тхэ Хун (Kim Tae Hoon / 김태훈)
Отани Рёхей (Otani Ryohei / 大谷慶彦)
Пак Бо Гом (Park Bo Gum / 박보검)
Ли Сын Джун (Lee Seung Joon / 이승준)
Ким Вон Хэ (Kim Won Hae / 김원해)
и др.-Описание:
Фильм рассказывает об известной битве за Мён Рян, состоявшейся в 1597 году во время японского вторжения в Корею. Тогда культовому адмиралу Ли Сунсину удалось уничтожить 133 японских боевых корабля и около 200 вспомогательных судов, имея флот всего в 13 кораблей и переменить ход войны.
Немного предыстории.
Весной 1592 года японский полководец Тоётоми Хидэёси высадился на территории Корейского полуострова. У себя дома Хидэёси объединил страну и поставил точку в гражданской войне; теперь ему было необходимо срочно занять десятки тысяч попивших кровушки самураев удачной заграничной кампанией. Корейское королевство Чосон являлись на тот момент вассалами Китая, поэтому корейцам было предложено отказаться от сопротивления и пропустить японские войска через свои территории без боя.
Понимая, что грабежей и мародерства не избежать, корейцы отказались и были разбиты за пару недель. А вот масштабного столкновения китайцев и японцев так и не состоялось. В течении нескольких лет стороны вели дипломатические переговоры, докладывая в генштаб о том, что враг побежден, но реальных результатов это не приносило.
В 1597 году, когда Хидэёси вдруг понял: китайцы уверены, сдаваться должен он, а не они, сёгун вспылил и объявил вторую военную кампанию. Про Китай он на тот момент уже забыл, главной целью полководца стало окончательное покорение Корейского полуострова. 140 000 самураев на 200 кораблях под началом молодого сегунского племянника Кобаякавы высадились на южном побережье и вступили в затяжную военную кампанию. 27 августа 1597 года корейский флот оказался полностью уничтожен в битве при Чхильчонняне. Корейский адмирал погиб, спаслись только тринадцать 20-пушечных кораблей-пханосоксонов, которые успешно бежали с поля боя.
И, вот здесь в историю вступает исторический персонаж, которого в фильме играет Чхве Мин-Сик. Великий флотоводец Ли Сунсин, не проигравший за свою жизнь ни единой битвы (выиграл, кстати, 23). Точнее будет сказать, что вступил он в военные действия достаточно давно. Ли Сунсин — выходец из опального армейского рода — показал себя талантливым стратегом и харизматичным лидером во время первой японо-корейской кампании, поэтому злопыхатели добились смещения успешного командира с поста адмирала и заключения его в тюрьму. Когда корейский флот остался без… флота, Ли Сунсина выпустили из застенков и снова назначили главным.
26 октября 1597 года в битве при Мёнрян 13 оставшихся корейских пханоксона на голову разбили японский флот, состоящий из 133 боевых кораблей и около 200 вспомогательных судов.
© kinopoisk-Доп. информация:
Релиз подготовлен группой GREEN TEA
Перевод: Виктория Широкова
Работа со звуком: Ольга Гринтиева
Оформление постера: Константин Романов-Качество: WEBRip
Формат: MKV
Видео кодек: AVC
Аудио кодек: MP3
Видео: 1280х544, 3994 Кбит/с, 23.976 fps
Аудио: 48 kHz, 192 Кбит/c, 2 канала
!!! Альтернативная раздача: 304p (AVI, XviD)
ОСТ к фильму Адмирал: Битва за Мён Рян

MediaInfo

Код:
General
Format                                   : AVC
Format/Info                              : Advanced Video Codec
Format profile                           : High@L4.1
Format settings, CABAC                   : Yes
Format settings, ReFrames                : 5 frames
Codec ID                                 : V_MPEG4/ISO/AVC
Duration                                 : 2h 8mn
Bit rate mode                            : Variable
Bit rate                                 : 3 994 Kbps
Maximum bit rate                         : 40.0 Mbps
Width                                    : 1 280 pixels
Height                                   : 544 pixels
Display aspect ratio                     : 2.35:1
Frame rate mode                          : Constant
Frame rate                               : 23.976 fps
Color space                              : YUV
Chroma subsampling                       : 4:2:0
Bit depth                                : 8 bits
Scan type                                : Progressive
Bits/(Pixel*Frame)                       : 0.239
Stream size                              : 3.51 GiB (93%)
Writing library                          : x264 core 130 r2273 b3065e6
Encoding settings                        : cabac=1 / ref=5 / deblock=1:-1:-1 / analyse=0x3:0x133 / me=umh / subme=10 / psy=1 / psy_rd=1.00:0.00 / mixed_ref=1 / me_range=24 / chroma_me=1 / trellis=2 / 8x8dct=1 / cqm=0 / deadzone=21,11 / fast_pskip=0 / chroma_qp_offset=-2 / threads=6 / lookahead_threads=1 / sliced_threads=0 / nr=0 / decimate=1 / interlaced=0 / bluray_compat=0 / constrained_intra=0 / bframes=3 / b_pyramid=2 / b_adapt=2 / b_bias=0 / direct=3 / weightb=1 / open_gop=0 / weightp=2 / keyint=250 / keyint_min=23 / scenecut=40 / intra_refresh=0 / rc_lookahead=60 / rc=2pass / mbtree=1 / bitrate=3994 / ratetol=1.0 / qcomp=0.60 / qpmin=10 / qpmax=51 / qpstep=4 / cplxblur=20.0 / qblur=0.5 / ip_ratio=1.40 / aq=1:1.0
Default                                  : Yes
Forced                                   : No
Audio
ID                                       : 2
Format                                   : MPEG Audio
Format version                           : Version 1
Format profile                           : Layer 3
Mode                                     : Joint stereo
Codec ID                                 : A_MPEG/L3
Codec ID/Hint                            : MP3
Duration                                 : 2h 8mn
Bit rate mode                            : Constant
Bit rate                                 : 192 Kbps
Channel(s)                               : 2 channels
Sampling rate                            : 48.0 KHz
Compression mode                         : Lossy
Stream size                              : 177 MiB (5%)
Default                                  : Yes
Forced                                   : No

Скриншоты




Последний раз редактировалось: Klёпa (2015-01-17 16:24), всего редактировалось 2 раз(а)
[Профиль] [ЛС]

globys103

Стаж: 1 год 11 месяцев

Сообщений: 2

Пост 15-Янв-2015 07:30 (спустя 10 часов)

[Цитировать]

как скачать фильм то
[Профиль] [ЛС]

globys103

Стаж: 1 год 11 месяцев

Сообщений: 2

Пост 15-Янв-2015 08:04 (спустя 34 минуты)

[Цитировать]

ужасно хочу посмотреть обожаю такие фильмы
[Профиль] [ЛС]

Tainted-love

Стаж: 2 года 11 месяцев

Сообщений: 1180

Пост 15-Янв-2015 12:09 (спустя 4 часа)

[Цитировать]

Силен мужик... думаю стоит посмотреть этот фильм... мужу он точно понравится.
[Профиль] [ЛС]

InDEeC

Стаж: 2 года 2 месяца

Сообщений: 39

Откуда: Москва

Пост 15-Янв-2015 12:40 (спустя 31 минута)

[Цитировать]

тоже интересно когда скачать можно будет....
[Профиль] [ЛС]

mukar

Стаж: 3 года 1 месяц

Сообщений: 4

Пост 15-Янв-2015 18:17 (спустя 5 часов)

[Цитировать]

Интересно будет посмотреть.
[Профиль] [ЛС]

ZiZ

Стаж: 1 год 10 месяцев

Сообщений: 1

Пост 16-Янв-2015 07:23 (спустя 13 часов)

[Цитировать]

Где раздача то ?
[Профиль] [ЛС]

InDEeC

Стаж: 2 года 2 месяца

Сообщений: 39

Откуда: Москва

Пост 17-Янв-2015 05:29 (спустя 22 часа)

[Цитировать]

офигенный фильмак =)
[Профиль] [ЛС]

craaft

Стаж: 1 год 10 месяцев

Сообщений: 1

Пост 17-Янв-2015 08:54 (спустя 3 часа)

[Цитировать]

Наконец-то! Огромное спасибо!
[Профиль] [ЛС]

Venomtor

Стаж: 2 года 11 месяцев

Сообщений: 4

Пост 18-Янв-2015 09:11 (спустя 1 день)

[Цитировать]

Красивое кино. Спасибо!
[Профиль] [ЛС]

Tainted-love

Стаж: 2 года 11 месяцев

Сообщений: 1180

Пост 21-Янв-2015 18:33 (спустя 3 дня)

[Цитировать]

Кто понял кого здесь Но Мин У играет? Когда они массово выступают в своих исторических костюмах, то совсем не ясно кто где.
[Профиль] [ЛС]

Tainted-love

Стаж: 2 года 11 месяцев

Сообщений: 1180

Пост 22-Янв-2015 19:59 (спустя 1 день 1 час)

[Цитировать]

Все увидела... я в шоке... герою Но Мин У попали стрелой прямо в глаз и он свалился в воду... кошмар... фильм классный... смотреть обязательно.
[Профиль] [ЛС]

Structural

Стаж: 2 года 11 месяцев

Сообщений: 5

Пост 24-Янв-2015 06:12 (спустя 1 день 10 часов)

[Цитировать]

Великолепный исторический фильм!
Корейцы просто молодцы - подошли к вопросу очень основательно и сняли потрясающее кино (что неудивительно, учитывая значимость фигуры Ли Сун Сина для всего кор. народа).
Команде ГриТи - огромное спасибо.
[Профиль] [ЛС]

kska

Стаж: 2 года 2 месяца

Сообщений: 15

Пост 28-Янв-2015 18:48 (спустя 4 дня)

[Цитировать]

Адски крутой фильм!!! bp Великолепно снято, эмоции шкалят, а какой мощный и верный посыл несет! В общем, смотреть всем:)
Команда ГринТи - низкий поклон вам! СПАСИБИЩЕ!!! bi
[Профиль] [ЛС]

HAwkey

Стаж: 2 года 11 месяцев

Сообщений: 18

Пост 02-Фев-2015 17:32 (спустя 4 дня)

[Цитировать]

БРАВО Корейскому кинематографу
[Профиль] [ЛС]
Показать сообщения:    
Ответить на тему

Текущее время: Сегодня 14:06

Часовой пояс: GMT



Вы не можете начинать темы
Вы не можете отвечать на сообщения
Вы не можете редактировать свои сообщения
Вы не можете удалять свои сообщения
Вы не можете голосовать в опросах
Вы не можете прикреплять файлы к сообщениям
Вы не можете скачивать файлы