Жалобы на работу трекера ! прошу сюда :)

Пьета / Pieta (Ким Ки Дук / Kim Ki Duk) [2012 г., Драма, DVDRip]

Ответить на тему
 
Автор Сообщение

Bermud ®

Стаж: 3 года 10 месяцев

Сообщений: 27

Пост 21-Янв-2013 18:07

[Цитировать]

Пьета / Pieta
Год выпуска: 2012
Страна: Южная Корея
Жанр: Драма
Продолжительность: 01:42:46
Режиссер: Ким Ки Дук / Kim Ki Duk
В ролях: Чо Мин Су, Ли Чжон Чжин, У Ки Хон
Описание: Одинокий тридцатилетний сеулец Ли Кан До зарабатывает вымогательством денег у кустарей, задолжавших местному ростовщику. Неплательщиков Кан До калечит, имитируя несчастный случай, чтобы те могли получить страховку и отдать долг. Однажды на пороге его дома появляется женщина, которая называет себя его матерью, бросившей его много лет назад. Подвергнув ее унижениям, Кан До постепенно принимает ее в свой дом. Обретение семьи заставляет его изменить свое отношение к жизни.
Доп. информация: рип и релиз - Bermud
перевод - Fi.Re.
озвучка - Catastrophe, Ульяна Громова, Франк Цветков, Fi.Re.
работа со звуком - Fi.Re.
Релиз: релиз-группа "GREEN TEA"
Источник: DVD9 Retail
Качество: DVDRip
Формат: AVI
Видео кодек: XviD
Аудио кодек: MP3
Видео: XviD, 720x384, 1,85:1, 23,976 кадра/сек, 1797 Кбит/сек
Аудио: mp3, 48,0 КГц, 192 Кбит/сек, 2 каналов

MediaInfo

Формат : AVI
Формат/Информация : Audio Video Interleave
Размер файла : 1,43 Гбайт
Продолжительность : 1 ч. 42 м.
Общий поток : 1998 Кбит/сек
Программа кодирования : VirtualDubMod 1.5.10.2 (build 2540/release)
Библиотека кодирования : VirtualDubMod build 2540/release
Видео
Идентификатор : 0
Формат : MPEG-4 Visual
Профиль формата : Advanced Simple@L5
Параметр BVOP формата : 1
Параметр QPel формата : Нет
Параметр GMC формата : Без точки перехода
Параметр матрицы формата : Выборочная
Идентификатор кодека : XVID
Идентификатор кодека/Подсказка : XviD
Продолжительность : 1 ч. 42 м.
Битрейт : 1797 Кбит/сек
Ширина : 720 пикселей
Высота : 384 пикселя
Соотношение сторон : 1,85:1
Частота кадров : 23,976 кадра/сек
Цветовое пространство : YUV
Субдискретизация насыщенности : 4:2:0
Битовая глубина : 8 бит
Тип развёртки : Прогрессивная
Метод сжатия : С потерями
Бит/(Пиксели*Кадры) : 0.271
Размер потока : 1,29 Гбайт (90%)
Библиотека кодирования : XviD 72
Аудио
Идентификатор : 1
Формат : MPEG Audio
Версия формата : Version 1
Профиль формата : Layer 3
Режим : Joint stereo
Расширение режима : MS Stereo
Идентификатор кодека : 55
Идентификатор кодека/Подсказка : MP3
Продолжительность : 1 ч. 42 м.
Вид битрейта : Постоянный
Битрейт : 192 Кбит/сек
Каналы : 2 канала
Частота : 48,0 КГц
Метод сжатия : С потерями
Размер потока : 141 Мбайт (10%)
Выравнивание : Соединение по промежуткам
Продолжительность промежутка : 42 мс. (1,00 видеокадр)
Время предзагрузки промежутка : 504 мс.
Библиотека кодирования : LAME3.98r
Настройки программы : -m j -V 4 -q 0 -lowpass 18.6 -b 192

Скриншоты

[Профиль] [ЛС]

lenivaya10001

Стаж: 3 года 10 месяцев

Сообщений: 16

Пост 18-Фев-2013 04:18 (спустя 27 дней)

[Цитировать]

ооо.... попробуем

_________________
верхняя это обиженная нижняя у которой нет хозяина
[Профиль] [ЛС]

lenivaya10002

Стаж: 3 года 9 месяцев

Сообщений: 37

Пост 08-Мар-2013 01:43 (спустя 17 дней)

[Цитировать]

Описание не соответствует действительности(содержанию)... слишком скудное.
ВПЕЧАТЛИТЕЛЬНЫМ СМОТРЕТЬ ПРОТИВОПОКАЗАНО!!!
СЕКТАНТАМ ( кроме буддистов ) СМОТРЕТЬ ПРОТИВОПОКАЗАНО!!!
НЕЗРЕЛЫМ ГРАЖДАНАМ СМОТРЕТЬ ПРОТИВОПОКАЗАНО!!!
КУДА СМОТРИТ АДМИНИСТРАЦИЯ? ... думаю стоит сообщать зрителям что в фильме присутствует фарш из животных, мастурбация, трупы, и массовый суицид... Это несколько ближе к мясорубке, чем к драме.
Хотя крови не очень много. Вообще интересная киношка, хотя честно говоря разочарован, что не было инцеста(уже настроился, думаю наконец-то хоть кто-то сектантскую ересь высмеит... нет, не время, вредители еще сильны). Заинтриговало даже такого неадеквата как я (вы все можете считать себя адекватами...как все - ходим строем, какаем по расписанию ... я не против, пока от вас мало вреда :))) ).
Бермуд, поправьте описание, а то у нас с пандой особая любовь ... лень еще один аккаунт заводить...

_________________
верхняя это обиженная нижняя у которой нет хозяина
[Профиль] [ЛС]

F1R3

Стаж: 3 года 10 месяцев

Сообщений: 7

Откуда: Россия

Пост 08-Мар-2013 08:54 (спустя 7 часов)

[Цитировать]

КУДА СМОТРИТ АДМИНИСТРАЦИЯ? ... думаю стоит сообщать зрителям что в фильме присутствует фарш из животных, мастурбация, трупы, и массовый суицид... Это несколько ближе к мясорубке, чем к драме.
Это Ким Ки-Дук, для человека более-менее разбирающегося в азиатском кино, это фамилия, более, чем говорящая.
[Профиль] [ЛС]

Auberto

Стаж: 3 года

Сообщений: 14

Пост 01-Дек-2013 06:59 (спустя 8 месяцев 22 дня)

[Цитировать]

Это потрясающий фильм, Ким Ки ДУк - это просто мечта, создающие такие неповторимые картины о любви к матери среди океана крови.
[Профиль] [ЛС]

VDN333

Стаж: 3 года 2 месяца

Сообщений: 15

Пост 07-Дек-2014 17:18 (спустя 1 год)

[Цитировать]

Ужасный фильм, отстойный, омерзительный фуу.

_________________
VDN333
[Профиль] [ЛС]

inga_li

Стаж: 2 года 9 месяцев

Сообщений: 43

Пост 25-Фев-2015 04:39 (спустя 2 месяца 17 дней)

[Цитировать]

шикарный фильм! обожаю Ким Ки Дука, никаких розовых соплей, драма от начала и до конца. Спасибо огромное за озвучку!
[Профиль] [ЛС]
Показать сообщения:    
Ответить на тему

Текущее время: Сегодня 16:00

Часовой пояс: GMT



Вы не можете начинать темы
Вы не можете отвечать на сообщения
Вы не можете редактировать свои сообщения
Вы не можете удалять свои сообщения
Вы не можете голосовать в опросах
Вы не можете прикреплять файлы к сообщениям
Вы не можете скачивать файлы