Жалобы на работу трекера ! прошу сюда :)

Венера и Марс / Ssaum / Venus and Mars (Джи-сён Хань / Ji-Seung Han) [2007 г., боевик, мелодрама, комедия, DVDRip]

Ответить на тему
 
Автор Сообщение

Амальфи ®

Стаж: 3 года 10 месяцев

Сообщений: 264

Пост 22-Янв-2013 12:27

[Цитировать]

Венера и Марс / Ssaum / Venus and Mars Год выпуска: 2007
Страна: Южная Корея
Жанр: боевик, мелодрама, комедия
Продолжительность: 01:41:59
Перевод: Двухголосый pandora2177, loster01
Режиссер: Джи-сён Хань / Ji-Seung Han
В ролях: Соль Гён Гу, Ким Тэ-Хи, Won-yeong Jang, Soo-kyeong Jeon, Hye-ryeon Kang, Ха-рионг Лим, Tae-hwa Seo
Описание:
Несмотря на то, что у них мало общего, Сан Мин и Чжин А влюбились и поженились. Однако вскоре они осознали, что не выносят друг друга, и решили развестись. Но их развод оказался далеко не мирным. Точкой кипения стал отказ Чжин А вернуть Сан Мину маятник от его любимых часов. И вскоре мелкие перебранки переросли в нечто более опасное для жизни.
Доп. информация:
Совместный релиз: GREEN TEA & ANIPOWER
Субтитры предоставлены: Фансаб-группа «Альянс»
Переводчик: Selena Min
Редактор: Daleko
Работа со звуком: pandora2177
Качество: DVDRip
Формат: AVI
Видео кодек: XviD
Аудио кодек: MP3
Видео: XviD, 640х272, 2,35:1, 23,976 кадра/сек, 818 Кбит/сек
Аудио: MP3, 44,1 КГц, 192 Кбит/сек, 2 канала

MediaInfo

Формат : AVI
Формат/Информация : Audio Video Interleave
Размер файла : 744 Мбайт
Продолжительность : 1 ч. 41 м.
Общий поток : 1019 Кбит/сек
Программа кодирования : VirtualDubMod 1.5.10.2 (build 2540/release)
Библиотека кодирования : VirtualDubMod build 2540/release
Видео
Идентификатор : 0
Формат : MPEG-4 Visual
Профиль формата : Advanced Simple@L5
Параметр BVOP формата : 2
Параметр QPel формата : Нет
Параметр GMC формата : Без точки перехода
Параметр матрицы формата : Default (H.263)
Режим смешивания : Сжатый битовый поток
Идентификатор кодека : XVID
Идентификатор кодека/Подсказка : XviD
Продолжительность : 1 ч. 41 м.
Битрейт : 818 Кбит/сек
Ширина : 640 пикселей
Высота : 272 пикселя
Соотношение сторон : 2,35:1
Частота кадров : 23,976 кадра/сек
Цветовое пространство : YUV
Субдискретизация насыщенности : 4:2:0
Битовая глубина : 8 бит
Тип развёртки : Прогрессивная
Метод сжатия : С потерями
Бит/(Пиксели*Кадры) : 0.196
Размер потока : 596 Мбайт (80%)
Библиотека кодирования : XviD 1.0.3 (UTC 2004-12-20)
Аудио
Идентификатор : 1
Формат : MPEG Audio
Версия формата : Version 1
Профиль формата : Layer 3
Идентификатор кодека : 55
Идентификатор кодека/Подсказка : MP3
Продолжительность : 1 ч. 41 м.
Вид битрейта : Постоянный
Битрейт : 192 Кбит/сек
Каналы : 2 канала
Частота : 44,1 КГц
Метод сжатия : С потерями
Размер потока : 140 Мбайт (19%)
Выравнивание : Разделение по промежуткам
Продолжительность промежутка : 42 мс. (1,00 видеокадр)
Время предзагрузки промежутка : 500 мс.

Скриншоты

[Профиль] [ЛС]

Lisas

Стаж: 2 года 11 месяцев

Сообщений: 6

Пост 09-Дек-2013 14:22 (спустя 10 месяцев 18 дней)

[Цитировать]

Описание любопытное - посмотрим...
[Профиль] [ЛС]

AlexStarRu

Стаж: 3 года 9 месяцев

Сообщений: 148

Пост 18-Дек-2013 18:47 (спустя 9 дней)

[Цитировать]

Честно говоря не понял, где тут боевик и комедия. Немного странный фильм со своеобразным сюжетом. Финал соответствует :). На любителя.
Примерно на середине решил, что можно и не досматривать. Однако досмотрел и в итоге не очень жалею. Примерно так 7 из 10.
Но озвучка - как всегда на высоте.
[Профиль] [ЛС]

AlexStarRu

Стаж: 3 года 9 месяцев

Сообщений: 148

Пост 18-Дек-2013 18:49 (спустя 1 минута)

[Цитировать]

Да, и ещё. А точно - такой перевод у названия ? Моё представление о Венере и Марсе никак с главными героями не связывается :)
[Профиль] [ЛС]

JL-BS

Стаж: 2 года 11 месяцев

Сообщений: 12

Пост 16-Янв-2014 21:09 (спустя 29 дней)

[Цитировать]

Эт что типа попытка повторить шедевр американцев???? "Развод семьи Роуз" кажется тот назывался...
[Профиль] [ЛС]
Показать сообщения:    
Ответить на тему

Текущее время: Сегодня 09:37

Часовой пояс: GMT



Вы не можете начинать темы
Вы не можете отвечать на сообщения
Вы не можете редактировать свои сообщения
Вы не можете удалять свои сообщения
Вы не можете голосовать в опросах
Вы не можете прикреплять файлы к сообщениям
Вы не можете скачивать файлы