Жалобы на работу трекера ! прошу сюда :)

Война стрел / Choejongbyungki Hwal / War of the Arrows (Ким Хан Мин / Kim Han Min) [2011, Южная Корея, Исторический боевик, HDTVRip] DVO GREEN TEA

Ответить на тему
 
Автор Сообщение

pandora2177 ®

Стаж: 3 года 10 месяцев

Сообщений: 368

Пост 23-Янв-2013 07:11

[Цитировать]

Война стрел / Choejongbyungki Hwal / War of the Arrows
-
Страна: Южная Корея
Жанр: Исторический, экшн
Год выпуска: 2011
Продолжительность: 01:54:18
Перевод: Двухголосый закадровый Алекс Викке, pandora2177
Cубтитры: нет. Есть корейский хардсаб в местах разговоров на другом наречии.
Режиссер: Ким Хан Мин / Kim Han Min
В ролях: Пак Хэ Иль, Рю Сынг Рён, Мун Чхе Вон, Ким Му Ёль и др.
Описание: 1636 г. Второе нашествие манчжуров в Корею. Захватчики вторгаются в мирную деревню во время проходящей там свадьбы, учиняют жестокую резню и захватывают пленных.
Искусный лучник, меткий стрелок Нам И рискует жизнью, спасая свою сестру из рабства.
Сцена лесной погони, продолжающаяся всю последнюю треть фильма, явно навеяна "Апокалипсисом" Мэла Гибсона.
Доп. информация:
Перевод: Betrayal
Отдельное спасибо: chopper887, Zenk
Релиз: релиз-группа "GREEN TEA"
Качество видео: HDTVRip
Формат видео: AVI
Видео: XviD, 720x304, 2,35:1, 23,976 кадра/сек, 4:2:0, 1494 Кбит/сек
Аудио: AC3, 48,0 КГц, 448 Кбит/сек, 6 каналов

Скриншот c названием фильма

Скриншоты





МедиоИнфо

Формат : AVI
Формат/Информация : Audio Video Interleave
Размер файла : 1,56 Гбайт
Продолжительность : 1 ч. 54 м.
Общий поток : 1952 Кбит/сек
Программа кодирования : VirtualDubMod 1.5.10.2 (build 2540/release)
Библиотека кодирования : VirtualDubMod build 2540/release
Видео
Идентификатор : 0
Формат : MPEG-4 Visual
Профиль формата : Advanced Simple@L5
Параметр BVOP формата : 2
Параметр QPel формата : Нет
Параметр GMC формата : Без точки перехода
Параметр матрицы формата : Default (H.263)
Режим смешивания : Сжатый битовый поток
Идентификатор кодека : XVID
Идентификатор кодека/Подсказка : XviD
Продолжительность : 1 ч. 54 м.
Битрейт : 1494 Кбит/сек
Ширина : 720 пикселей
Высота : 304 пикселя
Соотношение сторон : 2,35:1
Частота кадров : 23,976 кадра/сек
Цветовое пространство : YUV
Субдискретизация насыщенности : 4:2:0
Битовая глубина : 8 бит
Тип развёртки : Прогрессивная
Метод сжатия : С потерями
Бит/(Пиксели*Кадры) : 0.285
Размер потока : 1,19 Гбайт (77%)
Библиотека кодирования : XviD 1.2.1 (UTC 2008-12-04)
Аудио
Идентификатор : 1
Формат : AC-3
Формат/Информация : Audio Coding 3
Расширение режима : CM (complete main)
Идентификатор кодека : 2000
Продолжительность : 1 ч. 54 м.
Вид битрейта : Постоянный
Битрейт : 448 Кбит/сек
Каналы : 6 каналов
Расположение каналов : Front: L C R, Side: L R, LFE
Частота : 48,0 КГц
Битовая глубина : 16 бит
Метод сжатия : С потерями
Размер потока : 366 Мбайт (23%)
Выравнивание : Разделение по промежуткам
Продолжительность промежутка : 42 мс. (1,00 видеокадр)
Время предзагрузки промежутка : 500 мс.
[Профиль] [ЛС]

dolphinbibik

Стаж: 2 года 11 месяцев

Сообщений: 2

Пост 27-Дек-2013 19:41 (спустя 11 месяцев 4 дня)

[Цитировать]

Шикарное кино! Смотрел на одном дыхании. Уже в коллекции.
[Профиль] [ЛС]

god57

Стаж: 2 года 9 месяцев

Сообщений: 1

Пост 20-Фев-2014 16:42 (спустя 1 месяц 23 дня)

[Цитировать]

Приятно видеть переведённые исторические фильмы Спасибо Вам за оказанное удовольствие Дальнейших Вам успехов Хотелось бы увидеть побольше исторических фильмов об истории Китая с уважением god57
[Профиль] [ЛС]

GSanses

Стаж: 2 года

Сообщений: 56

Пост 19-Июн-2015 16:57 (спустя 1 год 3 месяца)

[Цитировать]

Фильм потрясающий, о взрослой мужской ответственности, преданности, о мужестве.
[Профиль] [ЛС]

Gani

Стаж: 1 год 5 месяцев

Сообщений: 1

Пост 30-Июн-2015 04:10 (спустя 10 дней)

[Цитировать]

Как скачать этот фильм
[Профиль] [ЛС]

jondok

Стаж: 2 года 1 месяц

Сообщений: 706

Откуда: Россия

Пост 30-Июн-2015 04:22 (спустя 11 минут)

[Цитировать]

Как скачать этот фильм
http://tracker.green-tea.tv/viewtopic.php?t=72
[Профиль] [ЛС]

Ная

Стаж: 2 года 7 месяцев

Сообщений: 206

Откуда: Россия

Пост 07-Фев-2016 11:03 (спустя 7 месяцев 7 дней)

[Цитировать]

Великолепный фильм!
Большое спасибо Алекс Викке и pandora2177 за отличную озвучку и всем кто работал над фильмом!
[Профиль] [ЛС]
Показать сообщения:    
Ответить на тему

Текущее время: Сегодня 02:24

Часовой пояс: GMT



Вы не можете начинать темы
Вы не можете отвечать на сообщения
Вы не можете редактировать свои сообщения
Вы не можете удалять свои сообщения
Вы не можете голосовать в опросах
Вы не можете прикреплять файлы к сообщениям
Вы не можете скачивать файлы