Жалобы на работу трекера ! прошу сюда :)

Вкус денег / The Taste of Money / Don-eui Mat (Лим Сан-Су / Lim Sang-soo) [2012 г., драма, эротика, HDTVRip] DVO GREEN TEA

Ответить на тему
 
Автор Сообщение

pandora2177 ®

Стаж: 3 года 10 месяцев

Сообщений: 368

Пост 30-Янв-2013 21:40

[Цитировать]

Вкус денег
The Taste of Money / Don-eui Mat

-
Год выпуска: 2012
Страна: Южная Корея
Жанр: драма, эротика
Продолжительность: 01:54:00
-
Перевод: Двухголосый (закадровый) Виктор Ерёменко и Ольга Гринтиева
Семпл
-
Режиссер: Лим Сан-Су / Lim Sang-soo
В ролях: Ким Кан-У (Бросок - История одного человека, Лучшее завтра) – Чжу Ён-Чак
Пэк Юн-Сик (Дерево с глубокими корнями, Золотая Вилла) - президент Юн
Юн Ё-Чжон (Король двух сердец, Семейка моего мужа) - Пэк Гым-Ок
Ким Хё-Чжин (Мэри, где же ты была всю ночь?, У Каждого Есть Секрет) - Юн На-Ми
Он Чжу-Ван (Школа балетного танца, Moя мoгyчaя пpинцecca) – Юн-Чхоль
Описание: В фильме показан мир корейских конгломератов, известных как семьи "чоболей". Мир денег и власти, жестокой и беспощадной реальности. Только ради денег и власти в этом мире любят, ненавидят, занимаются сексом и убивают... Амбициозный молодой человек хочет получить от жизни самое лучшее. Ему удается получить место личного секретаря в богатой и влиятельной семье Пэк. Очень скоро юноше придется, столкнувшись с реалиями жизни, сделать выбор между моралью и успехом...
-
Доп. информация: Релиз группы GREEN TEA
Перевод выполнен группой GREEN TEA
Оформление постера dusy78
-
Качество: HDTVRip
Формат: AVI
Видео кодек: XviD
Аудио кодек: AC3
Видео: 720x304 (2.40:1); 24.000 fps; 1398 Kbps; 0.266 bit/pixel
Аудио: AC-3, 448 Кбит/сек, 6 каналов, 48,0 КГц

МедиаИнфо

Формат : AVI
Формат/Информация : Audio Video Interleave
Размер файла : 1,49 Гбайт
Продолжительность : 1 ч. 54 м.
Общий поток : 1855 Кбит/сек
Программа кодирования : VirtualDubMod 1.5.10.2 (build 2540/release)
Библиотека кодирования : VirtualDubMod build 2540/release
Видео
Идентификатор : 0
Формат : MPEG-4 Visual
Профиль формата : Advanced Simple@L5
Параметр BVOP формата : Нет
Параметр QPel формата : Нет
Параметр GMC формата : Без точки перехода
Параметр матрицы формата : Default (MPEG)
Идентификатор кодека : XVID
Идентификатор кодека/Подсказка : XviD
Продолжительность : 1 ч. 54 м.
Битрейт : 1398 Кбит/сек
Ширина : 720 пикселей
Высота : 304 пикселя
Соотношение сторон : 2,40:1
Частота кадров : 24,000 кадра/сек
Цветовое пространство : YUV
Субдискретизация насыщенности : 4:2:0
Битовая глубина : 8 бит
Тип развёртки : Прогрессивная
Метод сжатия : С потерями
Бит/(Пиксели*Кадры) : 0.266
Размер потока : 1,12 Гбайт (75%)
Библиотека кодирования : XviD 64
Аудио
Идентификатор : 1
Формат : AC-3
Формат/Информация : Audio Coding 3
Расширение режима : CM (complete main)
Идентификатор кодека : 2000
Продолжительность : 1 ч. 54 м.
Вид битрейта : Постоянный
Битрейт : 448 Кбит/сек
Каналы : 6 каналов
Расположение каналов : Front: L C R, Side: L R, LFE
Частота : 48,0 КГц
Битовая глубина : 16 бит
Метод сжатия : С потерями
Размер потока : 368 Мбайт (24%)
Выравнивание : Разделение по промежуткам
Продолжительность промежутка : 42 мс. (1,00 видеокадр)
Время предзагрузки промежутка : 500 мс.

Скриншоты

[Профиль] [ЛС]

AFG77

Стаж: 3 года 10 месяцев

Сообщений: 1

Пост 23-Фев-2013 19:12 (спустя 23 дня)

[Цитировать]

достаточно предсказуемый финал, как для южнокорейского кино, но это здесь полностью оправдано. Еще очен впечатлил промоушн этой кинухи - просто великолепные постеры. Спасибо.
[Профиль] [ЛС]

alexclare12

Стаж: 2 года 11 месяцев

Сообщений: 8

Пост 08-Янв-2014 09:03 (спустя 10 месяцев 12 дней)

[Цитировать]

Встаньте пожалуйста на раздачу.
[Профиль] [ЛС]
Показать сообщения:    
Ответить на тему

Текущее время: Сегодня 14:09

Часовой пояс: GMT



Вы не можете начинать темы
Вы не можете отвечать на сообщения
Вы не можете редактировать свои сообщения
Вы не можете удалять свои сообщения
Вы не можете голосовать в опросах
Вы не можете прикреплять файлы к сообщениям
Вы не можете скачивать файлы