Жалобы на работу трекера ! прошу сюда :)

Служащий / Киллер / A Company Man / Hoi-sa-won (Им Сан Юн, Lim Sang-yoon) [2012 г., Криминал, Драма, HDTVRip] DVO GREEN TEA

Ответить на тему
 
Автор Сообщение

pandora2177 ®

Стаж: 3 года 10 месяцев

Сообщений: 368

Пост 07-Фев-2013 12:04

[Цитировать]

Служащий
Киллер / A Company Man / Hoi-sa-won

-
Год выпуска: 2012
Страна: Южная Корея
Жанр: Криминал, Драма
Продолжительность: 1 ч. 36 м.
-
Перевод: Двухголосый (закадровый) Виктор Ерёменко и Ольга Гринтиева
СЭМПЛ: http://yadi.sk/d/1HCKIdwa2R7vX
-
Режиссер: Им Сан Юн, Lim Sang-yoon
В ролях: Со Чи Соп, И Ми Ён, Квак До Вон, И Гён Ён и другие.
Описание: Хьён-до - с виду представитель респектабельной компании по торговле металлом.
Никто и не подозревает, что эта компания скрывает команду наемных убийц, убирающих, неугодных бизнесменам, людей.
Для выполнения грязной работы, компания использует подёнщиков, которых убивают при первой же оплошности. Это и должно было произойти с Хуном. Проникшись жалостью, его последнюю просьбу (передать накопленные деньги его семье) соглашается выполнить Хьён-до, не думая о том, что жалость в его работе приравнена к смерти. Столкнувшись с добрыми человеческими отношениями семьи, которая приняла его как своего, он всеми силами пытается не обмануть это доверие и защитить тех, кто так внезапно пробудил в нем остатки человечности и стал дорог...
-
Доп. информация:
Перевод: Эльза Нордж
Создание рипа: Bermud
Релиз группы GREEN TEA

-
Качество: HDRip
Формат: AVI
Видео кодек: XviD
Аудио кодек: MP3
Видео: 720x304, 1946 Кбит/сек, 23,976 кадра/сек, 2,35:1
Аудио: MP3, 192 кб/с, 2 канала, 48 Гц

МедиаИнфо

Формат : AVI
Формат/Информация : Audio Video Interleave
Размер файла : 1,45 Гбайт
Продолжительность : 1 ч. 36 м.
Общий поток : 2148 Кбит/сек
Программа кодирования : VirtualDubMod 1.5.10.2 (build 2540/release)
Библиотека кодирования : VirtualDubMod build 2540/release
Видео
Идентификатор : 0
Формат : MPEG-4 Visual
Профиль формата : Advanced Simple@L5
Параметр BVOP формата : 1
Параметр QPel формата : Нет
Параметр GMC формата : Без точки перехода
Параметр матрицы формата : Выборочная
Идентификатор кодека : XVID
Идентификатор кодека/Подсказка : XviD
Продолжительность : 1 ч. 36 м.
Битрейт : 1946 Кбит/сек
Ширина : 720 пикселей
Высота : 304 пикселя
Соотношение сторон : 2,35:1
Частота кадров : 23,976 кадра/сек
Цветовое пространство : YUV
Субдискретизация насыщенности : 4:2:0
Битовая глубина : 8 бит
Тип развёртки : Прогрессивная
Метод сжатия : С потерями
Бит/(Пиксели*Кадры) : 0.371
Размер потока : 1,31 Гбайт (91%)
Библиотека кодирования : XviD 72
Аудио
Идентификатор : 1
Формат : MPEG Audio
Версия формата : Version 1
Профиль формата : Layer 3
Режим : Joint stereo
Идентификатор кодека : 55
Идентификатор кодека/Подсказка : MP3
Продолжительность : 1 ч. 36 м.
Вид битрейта : Постоянный
Битрейт : 192 Кбит/сек
Каналы : 2 канала
Частота : 48,0 КГц
Метод сжатия : С потерями
Размер потока : 133 Мбайт (9%)
Выравнивание : Соединение по промежуткам
Продолжительность промежутка : 42 мс. (1,00 видеокадр)
Время предзагрузки промежутка : 504 мс.

Скриншоты









Последний раз редактировалось: pandora2177 (2013-02-12 07:42), всего редактировалось 1 раз
[Профиль] [ЛС]

Stacey-Susy

Стаж: 3 года 10 месяцев

Сообщений: 51

Пост 07-Фев-2013 13:30 (спустя 1 час 25 минут)

[Цитировать]

Со Джи Соп....глянем....по описанию ничего осбенного....но Джи Соп иногда может приковать к экрану, посмотрим что у него тут получилось...
[Профиль] [ЛС]

Chaos

Стаж: 3 года

Сообщений: 1

Пост 03-Июл-2014 19:30 (спустя 1 год 4 месяца)

[Цитировать]

хорошо у него получилось, очень хорошо.
[Профиль] [ЛС]

nnestor

Стаж: 2 года 10 месяцев

Сообщений: 116

Пост 05-Июл-2014 14:29 (спустя 1 день 18 часов)

[Цитировать]

согласен. фильм неплох.
[Профиль] [ЛС]

GSanses

Стаж: 2 года

Сообщений: 56

Пост 19-Июн-2015 16:41 (спустя 11 месяцев 14 дней)

[Цитировать]

По сути сюжет хороший, а вот снято скучно, затянуто.
[Профиль] [ЛС]

xxxxDreamxxxx

Стаж: 1 год 10 месяцев

Сообщений: 247

Откуда: Севастополь

Пост 17-Ноя-2015 16:07 (спустя 4 месяца 27 дней)

[Цитировать]

Фильм действительно не плох, правда, действительно, не много затянут, порой не видно драйва, какого не хватает в таких фильмах про киллеров. Не хватает динамичности, но корейцы, как всегда, влепили сюда любовь, переживания, ну как они любят. Смотреть можно, Со Чжи Соп молодец, хорошо сыграл. Добавить сюда напряжения, больше боевых сцен и убийств, получился бы экшн! ГринТи - как всегда спасибо за перевод!!!

_________________
[Профиль] [ЛС]

xxxxDreamxxxx

Стаж: 1 год 10 месяцев

Сообщений: 247

Откуда: Севастополь

Пост 17-Ноя-2015 17:11 (спустя 1 час 3 минуты)

[Цитировать]

Концовка порадовала, вот тут я понимаю - экшн!

_________________
[Профиль] [ЛС]

katt-ya981

Стаж: 8 месяцев 26 дней

Сообщений: 7

Пост 07-Мар-2016 19:22 (спустя 3 месяца 20 дней)

[Цитировать]

фильм мне очень понравился!
Спасибо!
[Профиль] [ЛС]
Показать сообщения:    
Ответить на тему

Текущее время: Сегодня 09:39

Часовой пояс: GMT



Вы не можете начинать темы
Вы не можете отвечать на сообщения
Вы не можете редактировать свои сообщения
Вы не можете удалять свои сообщения
Вы не можете голосовать в опросах
Вы не можете прикреплять файлы к сообщениям
Вы не можете скачивать файлы