Жалобы на работу трекера ! прошу сюда :)

Парень-волк / Мальчик-оборотень /A Werewolf Boy / Neukdae Sonyeon / 늑대소년 (Чо Сон-Хи / Jo Sung-hee) [2012 г., драма, фэнтези, HDTVRip] MVO GREEN TEA

Страницы :  1, 2, 3  След.

Ответить на тему
 
Автор Сообщение

pandora2177 ®

Стаж: 3 года 10 месяцев

Сообщений: 368

Пост 25-Фев-2013 11:29

[Цитировать]

Парень-волк
Мальчик-оборотень / A Werewolf Boy / Neukdae Sonyeon / 늑대소년

-
Год выпуска: 2012
Страна: Южная Корея
Жанр: драма, фэнтези
Продолжительность: 2 ч. 5 м.
-
Перевод: Многоголосый (закадровый) Milla, Nas, Spellhowler
СЭМПЛ: http://rghost.ru/44098262
-
Режиссер: Чо Сон-Хи / Jo Sung-hee
В ролях: Сон Чжун-Ки - мальчик-волк Чхоль-Су
Пак Бо-Ён - юная Сун-И / Ын-Джу
Ю Ён-Сок - Чжи-Тэ
Чан Ён-Нам - мама Сун-И
Ким Хян-Ки - Сун-Джа
Описание: Однажды, в доме Ким Сун-И раздался неожиданный телефонный звонок, и пожилой женщине пришлось провести ночь в ее старом загородном доме вместе с внучкой Ын-Джу (Пак Бо-Ён). Там Сун-И вспоминает, как сорок семь лет назад в 1965 году, когда она была девочкой, ее плохое состояние здоровья потребовало переезда из Сеула вместе со своей овдовевшей матерью и сестрой Сун-Джа в маленький городок. Семье Ким пришлось жить в благородной бедности из милости своего высокомерного хозяина Чжи-Тэ (Ю Ён-Сок). Однажды ночью, Сун-И (Пак Бо-Ён) заинтересовали проблески теней в конюшне, а на следующий день она обнаружила в их дворе на корточках нервного парня примерно девятнадцати лет...
-
Доп. информация:
Перевод: ФСГ Beloved Onnies
Переводчики: мистер Винстон, Лестн, Туча 0811
Редактор: Алина Милеева
Редакция субтитров под озвучку: Milla
Релиз: группы GREEN TEA
Оформление постера: Партизанка
Работа над звуком: Ольга Гринтиева
-
Качество: HDRip
Формат: AVI
Видео кодек: XviD
Аудио кодек: MP3
Видео: 720х406, 23,976 кадра/сек, 16:9, 1603 Кбит/сек
Аудио: MP3, 192 Кбит/сек Каналы, 2 канала, 48,0 КГц

Скриншоты





МедиаИнфо

Формат : AVI
Формат/Информация : Audio Video Interleave
Размер файла : 1,59 Гбайт
Продолжительность : 2 ч. 5 м.
Общий поток : 1805 Кбит/сек
Программа кодирования : VirtualDubMod 1.5.10.2 (build 2540/release)
Библиотека кодирования : VirtualDubMod build 2540/release
Видео
Идентификатор : 0
Формат : MPEG-4 Visual
Профиль формата : Simple@L1
Параметр BVOP формата : Нет
Параметр QPel формата : Нет
Параметр GMC формата : Без точки перехода
Параметр матрицы формата : Default (H.263)
Идентификатор кодека : XVID
Идентификатор кодека/Подсказка : XviD
Продолжительность : 2 ч. 5 м.
Битрейт : 1603 Кбит/сек
Ширина : 720 пикселей
Высота : 406 пикселей
Соотношение сторон : 16:9
Частота кадров : 23,976 кадра/сек
Цветовое пространство : YUV
Субдискретизация насыщенности : 4:2:0
Битовая глубина : 8 бит
Тип развёртки : Прогрессивная
Метод сжатия : С потерями
Бит/(Пиксели*Кадры) : 0.229
Размер потока : 1,41 Гбайт (89%)
Библиотека кодирования : Lavc52.108.0
Аудио
Идентификатор : 1
Формат : MPEG Audio
Версия формата : Version 1
Профиль формата : Layer 3
Идентификатор кодека : 55
Идентификатор кодека/Подсказка : MP3
Продолжительность : 2 ч. 5 м.
Вид битрейта : Постоянный
Битрейт : 192 Кбит/сек
Каналы : 2 канала
Частота : 48,0 КГц
Метод сжатия : С потерями
Размер потока : 173 Мбайт (11%)
Выравнивание : Соединение по промежуткам
Продолжительность промежутка : 42 мс. (1,00 видеокадр)
Время предзагрузки промежутка : 504 мс.


Последний раз редактировалось: pandora2177 (2013-02-28 14:19), всего редактировалось 1 раз
[Профиль] [ЛС]

uncommitted

Стаж: 3 года 9 месяцев

Сообщений: 1

Пост 25-Фев-2013 11:53 (спустя 23 минуты)

[Цитировать]

огромнейшей спасибоО!
[Профиль] [ЛС]

Stacey-Susy

Стаж: 3 года 10 месяцев

Сообщений: 51

Пост 25-Фев-2013 11:56 (спустя 3 минуты)

[Цитировать]

ОГО!!! Вот это оперативность!!!
[Профиль] [ЛС]

triss merigold

Стаж: 3 года 10 месяцев

Сообщений: 30

Пост 25-Фев-2013 12:19 (спустя 22 минуты)

[Цитировать]

огромное спасибо всем кто работал над этим фильмом
[Профиль] [ЛС]

Poher_face

Стаж: 3 года 9 месяцев

Сообщений: 1

Пост 25-Фев-2013 12:23 (спустя 4 минуты)

[Цитировать]

спасибо, спасибо и еще раз спасибо!
[Профиль] [ЛС]

olgasolnyffko

Стаж: 3 года 9 месяцев

Сообщений: 1

Пост 25-Фев-2013 15:24 (спустя 3 часа)

[Цитировать]

СПАСИБО!!!!
[Профиль] [ЛС]

ShinKi

Стаж: 3 года 10 месяцев

Сообщений: 3

Откуда: Рязань

Пост 25-Фев-2013 15:44 (спустя 19 минут)

[Цитировать]

Большущее спасибо!

_________________
_Always Keep the Faith_
[Профиль] [ЛС]

Zamoro4ka

Стаж: 3 года 10 месяцев

Сообщений: 2

Пост 25-Фев-2013 15:53 (спустя 9 минут)

[Цитировать]

это полная версия с альтернативной концовкой или нет?
[Профиль] [ЛС]

immortalmoth

Стаж: 3 года 9 месяцев

Сообщений: 1

Пост 25-Фев-2013 18:52 (спустя 2 часа 58 минут)

[Цитировать]

спасибо огромное ^-^
[Профиль] [ЛС]

Foull

Стаж: 3 года 10 месяцев

Сообщений: 40

Откуда: Украина

Пост 25-Фев-2013 19:08 (спустя 15 минут)

[Цитировать]

Где б столько времени взять все пересмотреть?) Спасибо за труд. bs
[Профиль] [ЛС]

Gorrion32

Стаж: 3 года 9 месяцев

Сообщений: 2

Пост 25-Фев-2013 19:20 (спустя 12 минут)

[Цитировать]

Спасибо огромное за замечательное озвучивание этого фильма ! Очень понравилось!!
[Профиль] [ЛС]

liisa798

Стаж: 3 года 9 месяцев

Сообщений: 1

Пост 26-Фев-2013 07:35 (спустя 12 часов)

[Цитировать]

Спасибо огромное!
[Профиль] [ЛС]

karin_aiva

Стаж: 3 года 9 месяцев

Сообщений: 5

Пост 26-Фев-2013 11:29 (спустя 3 часа)

[Цитировать]

спасибо большое !
[Профиль] [ЛС]

Натиса

Стаж: 3 года 10 месяцев

Сообщений: 1

Пост 26-Фев-2013 17:00 (спустя 5 часов)

[Цитировать]

Ну и скорость, спасибо вам вооот такенное!!
[Профиль] [ЛС]

MishaZ

Стаж: 3 года 10 месяцев

Сообщений: 6

Пост 28-Фев-2013 09:39 (спустя 1 день 16 часов)

[Цитировать]

это полная версия с альтернативной концовкой или нет?
Есть альтернативная концовка? О_о
[Профиль] [ЛС]
Показать сообщения:    
Ответить на тему

Текущее время: Сегодня 22:13

Часовой пояс: GMT



Вы не можете начинать темы
Вы не можете отвечать на сообщения
Вы не можете редактировать свои сообщения
Вы не можете удалять свои сообщения
Вы не можете голосовать в опросах
Вы не можете прикреплять файлы к сообщениям
Вы не можете скачивать файлы