Жалобы на работу трекера ! прошу сюда :)

Сыщики / Офицер года / The Apprehenders / Officer of the Year (Лим Чан-ик / Lim Chan-ik) [2011 г., боевик, комедия, DVDRip] DVO (Green Tea) + original kor

Ответить на тему
 
Автор Сообщение

dusy78 ®

Стаж: 3 года 10 месяцев

Сообщений: 1005

Откуда: Россия

Пост 09-Мар-2013 12:14

[Цитировать]

Сыщики / Офицер года
The Apprehenders / Officer of the Year

Год выпуска: 2011
Страна: Южная Корея
Жанр: боевик, комедия
Продолжительность: 01:56:34
Перевод: двухголосый закадровый pandora2177, Ustas Alexis
Семпл: http://sendfile.su/775397
Режиссер: Лим Чан-ик / Lim Chan-ik
В ролях: Пак Чун Хун
Сон-Гён Ли
Сунг-мин Ли
Jeong-tae Kim
Ju-yeon Ko
Yong-joo Ahn
Описание: Хван Чжэ Сон возглавляет специальный полицейский отдел расследований. Он гроза преступников соседних кварталов и славится своим умением выслеживать самых хитроумных негодяев. Хван умеет сделать так, что преступники из соседних кварталов попадают в район, где он работает, и уж тогда им не скрыться.
Но у Хван Чжэ Сона есть соперник Чон Ый Чхан, такой же сыщик из соседнего полицейского участка, который в своем профессионализме и честолюбии не уступает Хвану. Каждый из них усердно исполняет свой долг, но самое интересное начинается тогда, когда Чон по воле обстоятельств упускает нескольких преступников, и Хван перехватывает их прямо у него под носом. Тогда Чон твердо решает во что бы то ни стало сравнять счет. Так начинается гонка двух лучших сыщиков, за которой нескучно будет наблюдать.
Доп. информация:
Релиз:группы GREEN TEA
Озвучивание: двухголосый закадровый pandora2177, Ustas Alexis
Качество: DVDRip
Формат: AVI
Видео кодек: XviD
Аудио кодек: AC3
Видео: Xvid, 720x304, 23.976 fps, 1285Kbps
Аудио 1: 48 kHz, AC3 Dolby Digital, 3/2 (L,C,R,l,r) + LFE ch, ~448.00 kbps avg DVO
Аудио 2: 48 kHz, AC3 Dolby Digital, 3/2 (L,C,R,l,r) + LFE ch, ~384.00 kbps avg original

MediaInfo

СЫЩИКИ(DVO Green Tea).2011.DVDRip.AC3.XviD.avi
Формат : AVI
Формат/Информация : Audio Video Interleave
Размер файла : 1,74 Гбайт
Продолжительность : 1 ч. 56 м.
Общий поток : 2131 Кбит/сек
Программа кодирования : VirtualDubMod 1.5.10.2 (build 2540/release)
Библиотека кодирования : VirtualDubMod build 2540/release
Видео
Идентификатор : 0
Формат : MPEG-4 Visual
Профиль формата : Advanced Simple@L5
Параметр BVOP формата : 2
Параметр QPel формата : Нет
Параметр GMC формата : Без точки перехода
Идентификатор кодека : XVID
Идентификатор кодека/Подсказка : XviD
Продолжительность : 1 ч. 56 м.
Битрейт : 1285 Кбит/сек
Ширина : 720 пикс.
Высота : 304 пикс.
Соотношение сторон : 2,35:1
Частота кадров : 23,976 кадр/сек
Цветовое пространство : YUV
Подвыборка цветности : 4:2:0
Битовая глубина : 8 бит
Тип развёртки : Прогрессивная
Метод сжатия : С потерями
Бит/(Пиксели*Кадры) : 0.245
Размер потока : 1,05 Гбайт (60%)
Библиотека кодирования : XviD 1.2.1 (UTC 2008-12-04)
Аудио #1
Идентификатор : 1
Формат : AC-3
Формат/Информация : Audio Coding 3
Расширение режима : CM (complete main)
Идентификатор кодека : 2000
Продолжительность : 1 ч. 56 м.
Вид битрейта : Постоянный
Битрейт : 448 Кбит/сек
Каналы : 6 каналов
Расположение каналов : Front: L C R, Side: L R, LFE
Частота : 48,0 КГц
Битовая глубина : 16 бит
Метод сжатия : С потерями
Размер потока : 374 Мбайт (21%)
Выравнивание : Разделение по промежуткам
Продолжительность промежутка : 42 мс. (1,00 видеокадр)
Время предзагрузки промежутка : 500 ms
Аудио #2
Идентификатор : 2
Формат : AC-3
Формат/Информация : Audio Coding 3
Расширение режима : CM (complete main)
Идентификатор кодека : 2000
Продолжительность : 1 ч. 56 м.
Вид битрейта : Постоянный
Битрейт : 384 Кбит/сек
Каналы : 6 каналов
Расположение каналов : Front: L C R, Side: L R, LFE
Частота : 48,0 КГц
Битовая глубина : 16 бит
Метод сжатия : С потерями
Размер потока : 320 Мбайт (18%)
Выравнивание : Разделение по промежуткам
Продолжительность промежутка : 42 мс. (1,00 видеокадр)
Время предзагрузки промежутка : 500 ms

Скриншот с название фильма

Скриншоты

[Профиль] [ЛС]

xukapu91

Стаж: 2 года 5 месяцев

Сообщений: 1

Пост 11-Авг-2014 18:08 (спустя 1 год 5 месяцев)

[Цитировать]

Встаньте на раздачу кто плз
[Профиль] [ЛС]

jummaya

Стаж: 3 года 1 месяц

Сообщений: 1

Пост 15-Авг-2014 07:57 (спустя 3 дня)

[Цитировать]

Встану, если кто-то даст скачать сначала
[Профиль] [ЛС]

Dmaris

Стаж: 9 месяцев 19 дней

Сообщений: 1

Пост 15-Фев-2016 19:43 (спустя 1 год 6 месяцев)

[Цитировать]

не качает
[Профиль] [ЛС]
Показать сообщения:    
Ответить на тему

Текущее время: Сегодня 20:36

Часовой пояс: GMT



Вы не можете начинать темы
Вы не можете отвечать на сообщения
Вы не можете редактировать свои сообщения
Вы не можете удалять свои сообщения
Вы не можете голосовать в опросах
Вы не можете прикреплять файлы к сообщениям
Вы не можете скачивать файлы