Жалобы на работу трекера ! прошу сюда :)

Лучший повар 2: Битва Кимчи / Le Grand Chef 2: Kimchi Battle (Baek Dong-Hun / Пэк Тон Хун) [2010 г., Южная Корея, романтика, DVDRip] DVO GREEN TEA

Ответить на тему
 
Автор Сообщение

balic ®

Стаж: 3 года 10 месяцев

Сообщений: 324

Пост 06-Окт-2013 05:13

[Цитировать]

Лучший повар 2: Битва Кимчи / Le Grand Chef 2: Kimchi Battle Страна: Южная Корея
Жанр: Мелодрама, драма.
Год выпуска: 2010
Продолжительность: 01:58:41
Перевод: Двухголосый закадровый balic и Shouske
Режиссер: Baek Dong-Hun / Пэк Тон Хун
В ролях: Kim jeong-Eun, Jin Ku, Wan Ji-Hye, Choi Jong-Won, Lee Bo-Hee, Lee Byeong-Jun, Kim Yeong-Ok, Park Kil-Soo, Heo Hyeo
СЭМПЛ http://multi-up.com/876686
Описание:
Начинается с того, что корейский президент посетил премьер-министра Японии и был вовлечен в жаркие споры о происхождении кимчи.Премьер-министр Японии делает смелое заявление, что кимчи является оригинальным японским блюдом. По возвращению в Корею президент устраивает конкурс кимчи. Чан Ын (Kim jeong-Eun) является известным шеф-поваром в Японии. По возвращении на родину в Корею, она хочет продать ресторан своей матери. Её брат Сан Чан (Jin Ku) против этого. И они решили разрешить свой спор с помощью конкурса кимчи....
Доп. информация:
Релиз-группа "GREEN TEA"
Оформление постера: dusy 78
Перевод: ФСГ "Bears"
Редакция субтитров под озвучку: NikaIna
Работа со звуком: Ольга Гринтиева
Качество видео: DVDRip
Формат видео: AVI
Видео: XviD, 1 182 Kbps, 640x272, 23.976 fps
Аудио: MP3, 2 ch, 128 Кбит/с, 48000 HzРелиз подготовлен при поддержке KorShop.ru

Скриншоты

Медиаинфо

General
Complete name : E:\aпартнер\[GREEN TEA] Le Grand Chef 2 Kimchi Battle.avi
Format : AVI
Format/Info : Audio Video Interleave
File size : 1.15 GiB
Duration : 1h 58mn
Overall bit rate : 1 384 Kbps
Writing application : VirtualDubMod 1.5.10.2 (build 2540/release)
Writing library : VirtualDubMod build 2540/release
Video
ID : 0
Format : MPEG-4 Visual
Format profile : Advanced Simple@L5
Format settings, BVOP : 2
Format settings, QPel : No
Format settings, GMC : No warppoints
Format settings, Matrix : Default (MPEG)
Muxing mode : Packed bitstream
Codec ID : DX50
Codec ID/Hint : DivX 5
Duration : 1h 58mn
Bit rate : 1 182 Kbps
Width : 640 pixels
Height : 272 pixels
Display aspect ratio : 2.35:1
Frame rate : 23.976 fps
Color space : YUV
Chroma subsampling : 4:2:0
Bit depth : 8 bits
Scan type : Progressive
Compression mode : Lossy
Bits/(Pixel*Frame) : 0.283
Stream size : 1 006 MiB (85%)
Writing library : XviD 1.2.1 (UTC 2008-12-04)
Audio
ID : 1
Format : MPEG Audio
Format version : Version 1
Format profile : Layer 3
Codec ID : 55
Codec ID/Hint : MP3
Duration : 1h 58mn
Bit rate mode : Constant
Bit rate : 128 Kbps
Channel(s) : 1 channel
Sampling rate : 48.0 KHz
Compression mode : Lossy
Stream size : 109 MiB (10%)
Alignment : Aligned on interleaves
Interleave, duration : 42 ms (1.00 video frame)
Interleave, preload duration : 504 ms


Последний раз редактировалось: balic (2013-10-19 11:45), всего редактировалось 1 раз
[Профиль] [ЛС]

getfor

Стаж: 3 года 10 месяцев

Сообщений: 13

Откуда: Краснодар

Пост 12-Окт-2013 17:31 (спустя 6 дней)

[Цитировать]

А почему нельзя скачать?

_________________
ОС GNU/Linux Debian 7
[Профиль] [ЛС]

balic ®

Стаж: 3 года 10 месяцев

Сообщений: 324

Пост 19-Окт-2013 11:18 (спустя 6 дней)

[Цитировать]

getfor, были техничесике неполадкаи. сейчас скачать можно
[Профиль] [ЛС]

balic ®

Стаж: 3 года 10 месяцев

Сообщений: 324

Пост 19-Окт-2013 11:47 (спустя 29 минут)

[Цитировать]

торрент перезалит!
[Профиль] [ЛС]

balic ®

Стаж: 3 года 10 месяцев

Сообщений: 324

Пост 19-Окт-2013 11:48 (спустя 36 секунд)

[Цитировать]

getfor, скачайте новый торррент, с ним должно начаться скачивание
[Профиль] [ЛС]

Auberto

Стаж: 3 года

Сообщений: 14

Пост 28-Дек-2013 11:50 (спустя 2 месяца 9 дней)

[Цитировать]

Ребята, просто без слов! Слезы текли рекой в сценах о матери!
От всей души спасибо за этот фильм!!!
Покажу маме через неделю дома, думаю, ей очень понравится!
[Профиль] [ЛС]
Показать сообщения:    
Ответить на тему

Текущее время: Сегодня 10:31

Часовой пояс: GMT



Вы не можете начинать темы
Вы не можете отвечать на сообщения
Вы не можете редактировать свои сообщения
Вы не можете удалять свои сообщения
Вы не можете голосовать в опросах
Вы не можете прикреплять файлы к сообщениям
Вы не можете скачивать файлы