Жалобы на работу трекера ! прошу сюда :)

Тайная миссия / Secretly Greatly (Чан Чхоль Су / Jang Cheol-soo) [2013 г., драма, лайв-экшн, комедия, HDTVRip]

Страницы :  1, 2  След.

Ответить на тему
 
Автор Сообщение

Nas ®

Стаж: 3 года 10 месяцев

Сообщений: 372

Пост 25-Ноя-2013 17:57

[Цитировать]

Тайная миссия
Secretly Greatly
-Год выпуска: 2013
Страна: Южная Корея
Жанр: драма, лайв-экшн, комедия
Продолжительность: 2:04:00-Перевод: Двухголосый закадровый Елена Егорова и Валерий Феодосов
СЭМПЛ:-Режиссер: Чан Чхоль Су / Jang Cheol-soo
В ролях: Пак Ки Ун, Ким Су Хён, Ли Хён У
Описание:
Эта яркая история с динамичным сюжетом основана на популярной веб-манхве "Covertly Gloriously"
"Корпус 5446", якобы призванный служить высокой миссии объединения Севера и Юга , - элитный шпионский отряд, бойцов которого тренируют с юных лет лучшие военные Северной Кореи.
Члены отряда, полные амбиций ребята, отправляются в Южную Корею, где маскируются под самых обычных людей: Вон Рю Хван (Ким Су Хён) под простоватого дурачка, Ри Хэ Ран (Пак Ки Ун) - начинающего певца и Ри Хэ Чин (Ли Хён У) - под ученика старшей школы. Они селятся в небольшом городке и, не получая приказов от руководства, постепенно начинают привыкать к тихой и мирной жизни. Однако, как снег на голову, спустя два года ожидания, они получают спец-задание от своей родины
После событий Второй Битвы при Енпёндон, Южная Корея выступает с требованием рассекретить имена и месторасположение 30 северокорейских шпионов, которые служат на территории Юга. В обмен на выполнение условий, Юг обещает оказать Пхеньяну финансовую поддержку. Дабы не допустить попадания военной элиты в руки противника, командование приказывает всем разведчикам на территории страны свести счеты с жизнью, а за теми, кто не желает этого делать, они отправляют Ким Тхэ Вона.
Доп. информация:
Перевод: фансаб-группа BigBoss
Релиз группы GREEN TEA
Оформление постера: Михаил Золотов и Анастасия Поливач
Рип: Андрей Буреев
Работа со звуком: Ольга Гринтиева
Качество: HDTVRip
Формат: AVI
Видео кодек: XVID
Аудио кодек: MP3
Видео: 704x304, 1475 Кбит/сек, 23,976 кадра/сек
Аудио: 128 Кбит, 2 канала, 48000 Гц

Медиаинфо

Формат : AVI
Формат/Информация : Audio Video Interleave
Размер файла : 1,40 Гбайт
Продолжительность : 2 ч. 4 м.
Общий поток : 1612 Кбит/сек
Программа кодирования : VirtualDubMod 1.5.10.2 (build 2540/release)
Библиотека кодирования : VirtualDub build 32842/release
Видео
Идентификатор : 0
Формат : MPEG-4 Visual
Профиль формата : Advanced Simple@L5
Параметр BVOP формата : 1
Параметр QPel формата : Нет
Параметр GMC формата : Без точки перехода
Параметр матрицы формата : Выборочная
Идентификатор кодека : XVID
Идентификатор кодека/Подсказка : XviD
Продолжительность : 2 ч. 4 м.
Битрейт : 1475 Кбит/сек
Ширина : 704 пикселя
Высота : 304 пикселя
Соотношение сторон : 2,35:1
Частота кадров : 23,976 кадра/сек
Цветовое пространство : YUV
Субдискретизация насыщенности : 4:2:0
Битовая глубина : 8 бит
Тип развёртки : Прогрессивная
Метод сжатия : С потерями
Бит/(Пиксели*Кадры) : 0.287
Размер потока : 1,28 Гбайт (91%)
Библиотека кодирования : XviD 72
Аудио
Идентификатор : 1
Формат : MPEG Audio
Версия формата : Version 1
Профиль формата : Layer 3
Режим : Joint stereo
Расширение режима : MS Stereo
Идентификатор кодека : 55
Идентификатор кодека/Подсказка : MP3
Продолжительность : 2 ч. 4 м.
Вид битрейта : Постоянный
Битрейт : 128 Кбит/сек
Каналы : 2 канала
Частота : 48,0 КГц
Метод сжатия : С потерями
Размер потока : 114 Мбайт (8%)
Выравнивание : Разделение по промежуткам
Продолжительность промежутка : 42 мс. (1,00 видеокадр)
Время предзагрузки промежутка : 500 мс.

Скриншоты

Озвучено при поддержке зрителей GREEN TEA


Последний раз редактировалось: Nas (2013-11-30 07:39), всего редактировалось 10 раз(а)
[Профиль] [ЛС]

erjik86

Стаж: 3 года 1 месяц

Сообщений: 2

Пост 26-Ноя-2013 09:55 (спустя 15 часов)

[Цитировать]

Как скачать
[Профиль] [ЛС]

erjik86

Стаж: 3 года 1 месяц

Сообщений: 2

Пост 26-Ноя-2013 09:55 (спустя 20 секунд)

[Цитировать]

где торрент?
[Профиль] [ЛС]

nuranura

Стаж: 3 года 1 месяц

Сообщений: 142

Пост 27-Ноя-2013 16:01 (спустя 1 день 6 часов)

[Цитировать]

а когда можно будет скачать?
[Профиль] [ЛС]

pandora2177

Стаж: 3 года 10 месяцев

Сообщений: 368

Пост 28-Ноя-2013 08:53 (спустя 16 часов)

[Цитировать]

Торрент доступен для скачивания.
[Профиль] [ЛС]

nuranura

Стаж: 3 года 1 месяц

Сообщений: 142

Пост 28-Ноя-2013 10:14 (спустя 1 час 21 минута)

[Цитировать]

спасибо!!!!!!!!спасибо!!!!!!!!спасибо!!!!!!!!спасибо!!!!!!!!спасибо!!!!!!!!спасибо!!!!!!!!спасибо!!!!!!!!
[Профиль] [ЛС]

kondrash

Стаж: 3 года 10 месяцев

Сообщений: 20

Пост 28-Ноя-2013 17:55 (спустя 7 часов)

[Цитировать]

Тут тебе комедия, тут тебе и драма!
[Профиль] [ЛС]

zuzja666

Стаж: 3 года 10 месяцев

Сообщений: 30

Пост 28-Ноя-2013 19:41 (спустя 1 час 46 минут)

[Цитировать]

спасибо!дождалась я своего наконец!
[Профиль] [ЛС]

Volk32ru

Стаж: 3 года

Сообщений: 13

Пост 28-Ноя-2013 21:39 (спустя 1 час 57 минут)

[Цитировать]

Спасибо!!!
[Профиль] [ЛС]

Ланочка10_83

Стаж: 3 года 1 месяц

Сообщений: 131

Пост 29-Ноя-2013 02:29 (спустя 4 часа)

[Цитировать]

Ухты bp спасибо Вам большое!!! :)
[Профиль] [ЛС]

rodqer

Стаж: 3 года 10 месяцев

Сообщений: 417

Откуда: кемерово

Пост 29-Ноя-2013 11:15 (спустя 8 часов)

[Цитировать]

спасибки огромное наконец то так долго ждала спасибо вы лучшие
[Профиль] [ЛС]

Swetik123

Стаж: 3 года

Сообщений: 1

Пост 29-Ноя-2013 16:33 (спустя 5 часов)

[Цитировать]

Спасибо!
[Профиль] [ЛС]

Volk32ru

Стаж: 3 года

Сообщений: 13

Пост 29-Ноя-2013 18:43 (спустя 2 часа 10 минут)

[Цитировать]

Идентификатор кодека/Подсказка : XviD
Продолжительность : 2 ч. 4 м.
Битрейт : 1475 Кбит/сек
Ширина : 704 пикселя
Высота : 304 пикселя
Соотношение сторон : 2,35:1
Частота кадров : 23,976 кадра/сек
У вас в шапке и Медиаинфо расходятся в данных.
[Профиль] [ЛС]

Auberto

Стаж: 3 года

Сообщений: 14

Пост 01-Дек-2013 06:56 (спустя 1 день 12 часов)

[Цитировать]

Ребята, огромное спасибо за отменный фильм!
Смотрю фильмы в Вашей озвучке уже несколько лет, вы лучшие!
[Профиль] [ЛС]

PhoenixYuong

Стаж: 3 года 9 месяцев

Сообщений: 320

Откуда: Беларусь

Пост 02-Дек-2013 04:10 (спустя 21 час)

[Цитировать]

У меня претензия ТОЛЬКО к фильму!
Не спойлерить
Я совсем не рассчитывала на такую концовку! Плакала как ребенок!!!!!!!!
Отдельное спасибо за Вашу работу ребята, молодцы!!!!!!

_________________
[Профиль] [ЛС]
Показать сообщения:    
Ответить на тему

Текущее время: Сегодня 14:08

Часовой пояс: GMT



Вы не можете начинать темы
Вы не можете отвечать на сообщения
Вы не можете редактировать свои сообщения
Вы не можете удалять свои сообщения
Вы не можете голосовать в опросах
Вы не можете прикреплять файлы к сообщениям
Вы не можете скачивать файлы