Жалобы на работу трекера ! прошу сюда :)

Жуткий тип, Я и призрак / Museowoon Nomgwa Gwishingwa Na / The Scary One, The Ghost and I [Kim Yong Soo] [1/1] [Rus(int)] [Корея, 2010, комедия, мистика, детектив, TVRip] [RAW]

Ответить на тему
 
Автор Сообщение

balic ®

Стаж: 3 года 10 месяцев

Сообщений: 324

Пост 02-Дек-2013 09:05

[Цитировать]

Жуткий тип, Я и призрак / Museowoon Nomgwa Gwishingwa Na / The Scary One, The Ghost and I Страна: Южная Корея
Год выпуска: 2010
Жанр: комедия, мистика, детектив
Продолжительность: 67 мин
Режиссер: Kim Yong Soo
В ролях:
Lee Won Jong - Кан Ду Соп (Вампир-прокурор, Вампир-прокурор 2, Человек с экватора, Романтика без правил, Воин Пэк Тон Су, Аромат женщины, Скандал в Сонгюнгване, Роман для взрослых,
Непослушная невестка, 200 фунтов красоты)
Park Ki Woong - Ким Юн Су (Полный дом 2, Непобедимая Ли Пхён Ган, Охотники на рабов, Музыкант, Мститель в маске)
Kim Min Ji - призрак (От любви до ненависти, Цветочки после мальчиков)
Перевод: Одноголосый закадровый Екатерина Юрьева
СЭМПЛ http://multi-up.com/928754
Описание:
Это небольшая комедийная история о гангстере, который нанимает частного детектива, чтобы избавиться от призрака школьницы.
Кан Ду Соп - легендарный босс банды гангстеров. Он - дьявол, снаружи и внутри.
После очередной разборки, его начинает преследовать призрак школьницы, он вынужден пойти на отчаянные меры, чтобы избавиться от нее и не стать посмешищем.
Drama Special - это мини-фильм, снятый телевизионным телеканалом, имеющий свой собственный ни от чего не зависящий сюжет. Хотя они идут под номерами, как серии, но их ничего не связывает между собой.
Доп. информация:
Перевод и тайминг: Mirano
Релиз: группа GREEN TEA
Озвучивание и работа над звуком: Екатерина Юрьева
Оформление постера: Дина Фаткуллина
Качество видео: TVRip
Формат: AVI
Видео: AVI Видео кодек XVID разрешение 640x360 Кадр/сек 29.97 Битрейт (kbps) 1383
Аудио:язык Корейский,русский, Аудио кодек MP3 Каналов 2 Частота 48.0 Битрейт 192
Отключаемые субтитры: Без хардсаба

Медиаинфо

Общее
Полное имя : G:\торренты\[GREEN-TEA.TV] Жуткий тип, Я и призрак.avi
Формат : AVI
Формат/Информация : Audio Video Interleave
Размер файла : 768 Мбайт
Продолжительность : 1 ч. 7 м.
Общий поток : 1584 Кбит/сек
Программа кодирования : VirtualDubMod 1.5.10.2 (build 2540/release)
Библиотека кодирования : VirtualDubMod build 2540/release
Видео
Идентификатор : 0
Формат : xvid
Идентификатор кодека : xvid
Продолжительность : 1 ч. 7 м.
Битрейт : 1380 Кбит/сек
Ширина : 624 пикселя
Высота : 352 пикселя
Соотношение сторон : 16:9
Частота кадров : 29,970 кадров/сек
Бит/(Пиксели*Кадры) : 0.210
Размер потока : 669 Мбайт (87%)
Аудио
Идентификатор : 1
Формат : MPEG Audio
Версия формата : Version 1
Профиль формата : Layer 3
Режим : Joint stereo
Идентификатор кодека : 55
Идентификатор кодека/Подсказка : MP3
Продолжительность : 1 ч. 7 м.
Вид битрейта : Постоянный
Битрейт : 192 Кбит/сек
Каналы : 2 канала
Частота : 48,0 КГц
Метод сжатия : С потерями
Размер потока : 93,1 Мбайт (12%)
Выравнивание : Соединение по промежуткам
Продолжительность промежутка : 33 мс. (1,00 видеокадр)
Время предзагрузки промежутка : 504 мс.

Скриншоты

[
[Профиль] [ЛС]

rodqer

Стаж: 3 года 10 месяцев

Сообщений: 417

Откуда: кемерово

Пост 18-Янв-2014 10:50 (спустя 1 месяц 16 дней)

[Цитировать]

спасибо
[Профиль] [ЛС]

Inkarzhan

Стаж: 2 года 6 месяцев

Сообщений: 2

Пост 04-Июн-2014 06:54 (спустя 4 месяца 16 дней)

[Цитировать]

Спасибочки за фильм 감사합니다 ^_^
[Профиль] [ЛС]
Показать сообщения:    
Ответить на тему

Текущее время: Сегодня 16:31

Часовой пояс: GMT



Вы не можете начинать темы
Вы не можете отвечать на сообщения
Вы не можете редактировать свои сообщения
Вы не можете удалять свои сообщения
Вы не можете голосовать в опросах
Вы не можете прикреплять файлы к сообщениям
Вы не можете скачивать файлы