Жалобы на работу трекера ! прошу сюда :)

Тайная миссия / Secretly Greatly (Чан Чхоль Су / Jang Cheol-soo) [2013 г., драма, лайв-экшн, комедия, HDTVRip, 720p]

Ответить на тему
 
Автор Сообщение

Bermud ®

Стаж: 3 года 10 месяцев

Сообщений: 27

Пост 03-Дек-2013 15:39

[Цитировать]

Тайная миссия / Secretly Greatly
Год выпуска: 2013
Страна: Южная Корея
Жанр: драма, лайв-экшн, комедия
Продолжительность: 2:04:00
Перевод: Двухголосый закадровый Елена Егорова и Валерий Феодосов
Режиссер: Чан Чхоль Су / Jang Cheol-soo
В ролях: Пак Ки Ун, Ким Су Хён, Ли Хён У
Описание: Эта яркая история с динамичным сюжетом основана на популярной веб-манхве "Covertly Gloriously"
"Корпус 5446", якобы призванный служить высокой миссии объединения Севера и Юга , - элитный шпионский отряд, бойцов которого тренируют с юных лет лучшие военные Северной Кореи.
Члены отряда, полные амбиций ребята, отправляются в Южную Корею, где маскируются под самых обычных людей: Вон Рю Хван (Ким Су Хён) под простоватого дурачка, Ри Хэ Ран (Пак Ки Ун) - начинающего певца и Ри Хэ Чин (Ли Хён У) - под ученика старшей школы. Они селятся в небольшом городке и, не получая приказов от руководства, постепенно начинают привыкать к тихой и мирной жизни. Однако, как снег на голову, спустя два года ожидания, они получают спец-задание от своей родины
После событий Второй Битвы при Енпёндон, Южная Корея выступает с требованием рассекретить имена и месторасположение 30 северокорейских шпионов, которые служат на территории Юга. В обмен на выполнение условий, Юг обещает оказать Пхеньяну финансовую поддержку. Дабы не допустить попадания военной элиты в руки противника, командование приказывает всем разведчикам на территории страны свести счеты с жизнью, а за теми, кто не желает этого делать, они отправляют Ким Тхэ Вона.
Доп. информация: Перевод: фансаб-группа BigBoss
Релиз группы GREEN TEA
Оформление постера: Михаил Золотов и Анастасия Поливач
Рип: Андрей Буреев
Работа со звуком: Ольга Гринтиева
Качество: HDTVRip
Формат: MKV
Видео кодек: 1280x720, x264, 3995 Кбит/сек, 23,976 кадра/сек
Аудио кодек: MP3 128 Кбит, 2 канала, 48000 Гц

Медиаинфо

Формат : Matroska
Версия формата : Version 4 / Version 2
Размер файла : 3,59 Гбайт
Продолжительность : 2 ч. 4 м.
Общий поток : 4135 Кбит/сек
Дата кодирования : UTC 2013-12-01 20:36:14
Программа кодирования : mkvmerge v6.5.0 ('Isn't she lovely') built on Oct 20 2013 12:50:05
Библиотека кодирования : libebml v1.3.0 + libmatroska v1.4.1
Видео
Идентификатор : 1
Формат : AVC
Формат/Информация : Advanced Video Codec
Профиль формата : Baseline@L3.1
Параметр CABAC формата : Нет
Параметр ReFrames формата : 1 кадр
Идентификатор кодека : V_MPEG4/ISO/AVC
Продолжительность : 2 ч. 4 м.
Битрейт : 3995 Кбит/сек
Ширина : 1280 пикселей
Высота : 720 пикселей
Соотношение сторон : 16:9
Режим частоты кадров : Постоянный
Частота кадров : 23,976 кадра/сек
Цветовое пространство : YUV
Субдискретизация насыщенности : 4:2:0
Битовая глубина : 8 бит
Тип развёртки : Прогрессивная
Бит/(Пиксели*Кадры) : 0.181
Размер потока : 3,40 Гбайт (95%)
Заголовок : GREEN TEA
Библиотека кодирования : x264 core 85 r1442 781d300
Настройки программы : cabac=0 / ref=1 / deblock=0:0:0 / analyse=0x1:0x111 / me=umh / subme=7 / psy=0 / mixed_ref=0 / me_range=16 / chroma_me=1 / trellis=0 / 8x8dct=0 / cqm=0 / deadzone=21,11 / fast_pskip=0 / chroma_qp_offset=0 / threads=18 / sliced_threads=0 / nr=0 / decimate=1 / mbaff=0 / constrained_intra=0 / bframes=0 / wpredp=0 / keyint=96 / keyint_min=49 / scenecut=0 / intra_refresh=0 / rc=2pass / mbtree=0 / bitrate=3995 / ratetol=0.1 / qcomp=0.60 / qpmin=10 / qpmax=51 / qpstep=4 / cplxblur=20.0 / qblur=0.5 / ip_ratio=1.41 / aq=1:1.00
Язык : English
Default : Да
Forced : Нет
Аудио
Идентификатор : 2
Формат : MPEG Audio
Версия формата : Version 1
Профиль формата : Layer 3
Режим : Joint stereo
Расширение режима : MS Stereo
Идентификатор кодека : A_MPEG/L3
Идентификатор кодека/Подсказка : MP3
Продолжительность : 2 ч. 4 м.
Вид битрейта : Постоянный
Битрейт : 128 Кбит/сек
Каналы : 2 канала
Частота : 48,0 КГц
Метод сжатия : С потерями
Размер потока : 114 Мбайт (3%)
Заголовок : DVO Елена Егорова и Валерий Феодосов
Язык : Russian
Default : Да
Forced : Да

Скриншоты

Озвучено при поддержке зрителей GREEN TEA
[Профиль] [ЛС]

record

Стаж: 2 года 11 месяцев

Сообщений: 7

Откуда: Украина, Киев

Пост 04-Дек-2013 11:08 (спустя 19 часов)

[Цитировать]

Спасибо, очень понравился фильм))
Интересный, захватывающий сюжет...
Немного фантастики ибо как возможно так летать через крыши домов... и как так нож в спину и как не в чем не бывало в стать и дальше побежать...0_о ca
Одни положительные эмоции)))
Спасибо за великолепную озвучку команде "GREEN TEA"
Советую к просмотру))
[Профиль] [ЛС]

Ekivara

Стаж: 2 года 11 месяцев

Сообщений: 1

Пост 25-Дек-2013 20:27 (спустя 21 день)

[Цитировать]

Спасибо за вашу озвучку, фильм очень понравился
[Профиль] [ЛС]

Dirbs

Стаж: 3 года 1 месяц

Сообщений: 88

Пост 13-Янв-2014 09:12 (спустя 18 дней)

[Цитировать]

Конец просто беспощадный, большое спасибо за озвучивание очень понравилось...

_________________
Я та-а-к быстро вспомнил о чем забыл, что сразу забыл о чем вспомнил ^_^
[Профиль] [ЛС]
Показать сообщения:    
Ответить на тему

Текущее время: Сегодня 09:36

Часовой пояс: GMT



Вы не можете начинать темы
Вы не можете отвечать на сообщения
Вы не можете редактировать свои сообщения
Вы не можете удалять свои сообщения
Вы не можете голосовать в опросах
Вы не можете прикреплять файлы к сообщениям
Вы не можете скачивать файлы