Жалобы на работу трекера ! прошу сюда :)

Грубая игра: Актер есть актер / Rough Play: Actor is an actor (Shin Yeon Shick) [2013, драма, психология, HDTVRip] [360p] DVO GREEN TEA

Ответить на тему
 
Автор Сообщение

Klёпa ®

Стаж: 3 года 2 месяца

Сообщений: 906

Пост 16-Дек-2013 17:47

[Цитировать]

Грубая игра: Актёр есть актёр / Rough Play: Actor is an actor

Год выпуска: 2013
Страна: Южная Корея
Жанр: драма, психология
Продолжительность: 98 мин.-Перевод: Двухголосый (закадровый) Елена Егорова и Ярослав Мельник
Сэмпл: http://yadi.sk/d/HN2kqsCgERfzW-Режиссер: Shin Yeon Shick
В ролях: Ли Чжун, Seo Yeong Hee, Kang Shin Hyo, Seo Bum Suk, Ян Дон Гын, Ma Dong Seok, Oh Gwang Rok, Ким Хёнг Чжун, Lee Hwa Shi, Min Ji Oh, Lee Sae Byul, Gi Ju Bong
Описание: О Ён - актер второго плана, мечтающий стать большой звездой. И вот, однажды, у него появляется шанс взлететь на вершину славы. Он становится популярным благодаря лишь одному фильму.
Так О Ён открывает для себя новый скрытый мир славы, власти и удовольствий, но не понимает, что у всего есть оборотная темная сторона. Ведь ничего не дается даром, за все надо платить. И он платит за это своей душой и честью. Мораль - задирая нос, не сломай шею.
Доп. информация:
Релиз группы GREEN TEA
Рип: Елена Клёпкина
Перевод: фансаб-группа BIG BOSS
Работа со звуком: Ольга Гринтиева
Внимание! В фильме присутствует ненормативная лексика.
Не рекомендуется к просмотру лицам младше 18 лет.

Качество: HDTVRip
Формат: AVI
Видео кодек: XviD
Аудио кодек: MP3
Видео: 720x304, 2006 Кбит/сек, 30,000 кадров/сек
Аудио: 192 Кбит/сек, 2 канала, 48.0 КГц, стерео
Язык: Русский (закадровый, двухголосый)
Раздачи в другом качестве: AVC (MP4, 1280x544)

MediaInfo

Код:
General
Complete name                            : [GREEN TEA] Rough.Play.2013_720x304.avi
Format                                   : AVI
Format/Info                              : Audio Video Interleave
File size                                : 1.38 GiB
Duration                                 : 1h 38mn
Overall bit rate                         : 2 006 Kbps
Writing application                      : VirtualDubMod 1.5.10.2 (build 2542/release)
Writing library                          : VirtualDubMod build 2542/release
Video
ID                                       : 0
Format                                   : MPEG-4 Visual
Format profile                           : Advanced Simple@L5
Format settings, BVOP                    : 1
Format settings, QPel                    : No
Format settings, GMC                     : No warppoints
Format settings, Matrix                  : Custom
Codec ID                                 : XVID
Codec ID/Hint                            : XviD
Duration                                 : 1h 38mn
Bit rate                                 : 1 800 Kbps
Width                                    : 720 pixels
Height                                   : 304 pixels
Display aspect ratio                     : 2.35:1
Frame rate                               : 30.000 fps
Color space                              : YUV
Chroma subsampling                       : 4:2:0
Bit depth                                : 8 bits
Scan type                                : Progressive
Compression mode                         : Lossy
Bits/(Pixel*Frame)                       : 0.274
Stream size                              : 1.24 GiB (90%)
Writing library                          : XviD 1.2.1 (UTC 2008-12-04)
Audio
ID                                       : 1
Format                                   : MPEG Audio
Format version                           : Version 1
Format profile                           : Layer 3
Mode                                     : Joint stereo
Codec ID                                 : 55
Codec ID/Hint                            : MP3
Duration                                 : 1h 38mn
Bit rate mode                            : Constant
Bit rate                                 : 192 Kbps
Channel(s)                               : 2 channels
Sampling rate                            : 48.0 KHz
Compression mode                         : Lossy
Stream size                              : 135 MiB (10%)
Alignment                                : Aligned on interleaves
Interleave, duration                     : 24 ms (0.72 video frame)
Interleave, preload duration             : 504 ms

Скриншоты

[Профиль] [ЛС]
Показать сообщения:    
Ответить на тему

Текущее время: Сегодня 18:38

Часовой пояс: GMT



Вы не можете начинать темы
Вы не можете отвечать на сообщения
Вы не можете редактировать свои сообщения
Вы не можете удалять свои сообщения
Вы не можете голосовать в опросах
Вы не можете прикреплять файлы к сообщениям
Вы не можете скачивать файлы