Жалобы на работу трекера ! прошу сюда :)

Введение в архитектуру / An Introduction of Architecture (Ли Ён Чжу / Lee Yong Joo) [2012, Южная Корея, Романтика, мелодрама, DVDRip] DVO Nas и mi24

Ответить на тему
 
Автор Сообщение

Nas ®

Стаж: 3 года 10 месяцев

Сообщений: 372

Пост 19-Янв-2013 18:47

[Цитировать]

Введение в архитектуру
An Introduction of Architecture

-
Страна: Южная Корея
Жанр: Романтика, мелодрама
Год выпуска: 2012
Продолжительность: 01:56:18
-
Перевод: двухголосый закадровый Доп. инфо о переводе Nas и mi24
Сэмпл: http://sendfile.su/641433
-
Cубтитры: нет
Режиссер: Ли Ён Чжу / Lee Yong Joo
В ролях: Ом Тхэ Ун в роли Сын Мина
Хан Га Ин в роли Со Ён
Ли Чже Хун в роли Сын Мина (студента)
Сюзи в роли Со Ён (студентки)
Чжо Чжон Сок в роли Нам Дык И
Ю Ён Сок в роли Чже Ука
Описание: Сын Мин встретил Со Ён на занятиях по «Введению в архитектуру».
Она училась на музыкальном отделении, он - на архитектурном, и вряд ли бы они когда-нибудь познакомились, если бы не этот курс.
Они очень быстро сдружились, и их зарождавшаяся любовь могла бы расцвести буйным цветом, но…
В результате недопонимания они вынуждены расстаться.
Спустя 15 лет Со Ён приходит в офис архитектора Сын Мина с просьбой перестроить ее дом на Чеджу.
Работая над проектом, они снова начинают сближаться.
Казалось бы, их чувства остыли, ведь прошло столько лет, но не зря же говорят, что первая любовь не забывается никогда…
-
Доп. информация:
Перевод фансаб-группа "Альянс"
Координатор: puwistik
Переводчик: Kislinka
Редактор: This_is_me
Релиз: группа "GREEN TEA"
Создание рипа: WithPa
Оформление постера: MishaZ
Координация проекта: Amalfy
Работа со звуком: pandora2177
-
Качество видео: DVDRip
Формат видео: AVI
Видео: XviD, 720х304, 23,976 кадра/сек, 1504 Кбит/сек
Аудио: MP3, 48,0 Гц, 192 Кбит/сек, 2 канала

MediaInfo

Формат : AVI
Формат/Информация : Audio Video Interleave
Размер файла : 1,38 Гбайт
Продолжительность : 1 ч. 56 м.
Общий поток : 1697 Кбит/сек
Программа кодирования : VirtualDubMod 1.5.10.2 (build 2540/release)
Библиотека кодирования : VirtualDub build 32842/release
Видео
Идентификатор : 0
Формат : MPEG-4 Visual
Профиль формата : Advanced Simple@L5
Параметр BVOP формата : 2
Параметр QPel формата : Нет
Параметр GMC формата : Без точки перехода
Параметр матрицы формата : Default (MPEG)
Режим смешивания : Сжатый битовый поток
Идентификатор кодека : XVID
Идентификатор кодека/Подсказка : XviD
Продолжительность : 1 ч. 56 м.
Битрейт : 1495 Кбит/сек
Ширина : 720 пикселей
Высота : 304 пикселя
Соотношение сторон : 2,35:1
Частота кадров : 23,976 кадра/сек
Цветовое пространство : YUV
Субдискретизация насыщенности : 4:2:0
Битовая глубина : 8 бит
Тип развёртки : Прогрессивная
Метод сжатия : С потерями
Бит/(Пиксели*Кадры) : 0.285
Размер потока : 1,21 Гбайт (88%)
Библиотека кодирования : XviD 64
Аудио
Идентификатор : 1
Формат : MPEG Audio
Версия формата : Version 1
Профиль формата : Layer 3
Режим : Joint stereo
Идентификатор кодека : 55
Идентификатор кодека/Подсказка : MP3
Продолжительность : 1 ч. 56 м.
Вид битрейта : Постоянный
Битрейт : 192 Кбит/сек
Каналы : 2 канала
Частота : 48,0 КГц
Метод сжатия : С потерями
Размер потока : 160 Мбайт (11%)
Выравнивание : Разделение по промежуткам
Продолжительность промежутка : 42 мс. (1,00 видеокадр)
Время предзагрузки промежутка : 500 мс.

Скриншот c названием фильма

Скриншоты




[Профиль] [ЛС]

Эрька

Стаж: 3 года 10 месяцев

Сообщений: 12

Откуда: Молдова

Пост 25-Фев-2013 19:50 (спустя 1 месяц 6 дней)

[Цитировать]

Люблю Сюзи, но фильм как то не впечатлил(
[Профиль] [ЛС]
Показать сообщения:    
Ответить на тему

Текущее время: Сегодня 18:35

Часовой пояс: GMT



Вы не можете начинать темы
Вы не можете отвечать на сообщения
Вы не можете редактировать свои сообщения
Вы не можете удалять свои сообщения
Вы не можете голосовать в опросах
Вы не можете прикреплять файлы к сообщениям
Вы не можете скачивать файлы