Жалобы на работу трекера ! прошу сюда :)

Мальчик / Boy (Ро Хон Чжин / Roh Hong-jin) [2010 г., драма, HDTVRip]

Ответить на тему
 
Автор Сообщение

Valerius Kafa ®

Стаж: 3 года 2 месяца

Сообщений: 79

Пост 03-Фев-2014 18:43

[Цитировать]

Мальчик
Boy


Год выпуска: 2010
Страна: Южная Корея
Жанр: драма
Продолжительность: 01:53:01
Перевод: Двухголосый закадровый Елена Егорова и Валерий Феодосов
Режиссер: Ро Хон Чжин / Roh Hong-jin
В ролях: Ён Чжун Сок, Ан Нэ Сан, Ким Со Хи, Рё Хён Гён, Ким Дон Ён
Описание: Зима 1988-ого года, ученик средней школы Чин У (Ён Джун Сок) живёт со своим беззаботным отцом алкашом, и его несчастной матерью, которая работает на благо семьи, часто пытающиеся убежать из дома. Старшая сестра Чин Сук, ненавидя своего отца, всеми путями хочет развода родителей. Чин У видя страдания матери устраивается на работу по доставке газеты, и со временем узнаёт правду жизни...Fucanlong
Доп. информация:
Перевод: Onizuka
Релиз группы GREEN TEA
Работа со звуком: Константин Романов
Качество: HDTVRip
Формат: AVI
Видео кодек: XviD
Аудио кодек: MPEG Audio
Видео: XviD, 720x400 (1.80:1), 24.000 fps, 1648 kbps avg, 0.24 bit/pixel
Аудио: AAC 48000Hz stereo
Внимание! Фильм содержит сцены насилия и ненормативную лексику!

MediaInfo

Format : AVI
Format/Info : Audio Video Interleave
File size : 1.46 GiB
Duration : 1h 53mn
Overall bit rate mode : Variable
Overall bit rate : 1 844 Kbps
Writing application : VirtualDubMod 1.5.10.3 | www.virtualdub-fr.org || (build 2550/release)
Writing library : VirtualDubMod build 2550/release
Video
ID : 0
Format : MPEG-4 Visual
Format profile : Advanced Simple@L5
Format settings, BVOP : 1
Format settings, QPel : No
Format settings, GMC : No warppoints
Format settings, Matrix : Custom
Codec ID : XVID
Codec ID/Hint : XviD
Duration : 1h 53mn
Bit rate : 1 649 Kbps
Width : 720 pixels
Height : 400 pixels
Display aspect ratio : 16:9
Frame rate : 24.000 fps
Color space : YUV
Chroma subsampling : 4:2:0
Bit depth : 8 bits
Scan type : Progressive
Compression mode : Lossy
Bits/(Pixel*Frame) : 0.239
Stream size : 1.30 GiB (89%)
Writing library : XviD 73
Audio
ID : 1
Format : MPEG Audio
Format version : Version 1
Format profile : Layer 3
Mode : Joint stereo
Mode extension : MS Stereo
Codec ID : 55
Codec ID/Hint : MP3
Duration : 1h 53mn
Bit rate mode : Variable
Bit rate : 183 Kbps
Nominal bit rate : 192 Kbps
Channel(s) : 2 channels
Sampling rate : 48.0 KHz
Compression mode : Lossy
Stream size : 148 MiB (10%)
Alignment : Aligned on interleaves
Interleave, duration : 24 ms (0.58 video frame)
Interleave, preload duration : 100 ms

Скриншоты


_________________
Подпись отключена за нарушение правил форума


Последний раз редактировалось: Valerius Kafa (2014-02-06 15:26), всего редактировалось 1 раз
[Профиль] [ЛС]

rodqer

Стаж: 3 года 10 месяцев

Сообщений: 417

Откуда: кемерово

Пост 04-Фев-2014 15:18 (спустя 20 часов)

[Цитировать]

спасибо большое))))))))
[Профиль] [ЛС]

subardinat

Стаж: 1 год 8 месяцев

Сообщений: 6

Пост 25-Авг-2015 16:46 (спустя 1 год 6 месяцев)

[Цитировать]

половина скачалось а половина никак не качается
[Профиль] [ЛС]

JokeAr

Стаж: 2 года 4 месяца

Сообщений: 18

Откуда: Киев

Пост 21-Сен-2016 11:06 (спустя 1 год)

[Цитировать]

Потрясающе!
Взрослое кино о жизни. Которое можно оценить по настоящему только прожив определённое время на этом свете. Такие фильмы не могут надоесть потому что они разные, разные они потому что жизнь разная. Режиссёр, он же сценарист, отлично справился, хотя это его первая работа, думаю это потому что это автобиографическая картина. Актёры сыграли очень хорошо!
Удивило отсутствие комментариев в этой теме, сразу после чего поразило отсутствие не только комментариев но и оценок на "кинопоиске", странно, печально, жестоко, вот что я думаю о том что этот фильм прошёл незамеченным.
Всем кто это читает - Советую посмотреть этот фильм, и надеюсь что вы оцените его по достоинству!

_________________
Оптимисты учат английский.
Пессимисты зубрят китайский.
А реалисты осваивают автомат Калашникова…
И только японский… изучают для души!
[Профиль] [ЛС]

JokeAr

Стаж: 2 года 4 месяца

Сообщений: 18

Откуда: Киев

Пост 21-Сен-2016 14:01 (спустя 2 часа 54 минуты)

[Цитировать]

Пожалуй всё таки скажу о названии фильма.
Лучше всё таки исправьте в оформлении темы с "Мальчик" на "Прощай мальчик", на "кинопоиске" как раз такое название и указано. Название "Мальчик" очень некорректно, так как основная тема фильма это превращение мальчика в парня, и об этом прямым текстом говорится в самом начале фильма. Главный герой отправляется в путь по дороге обильно уложенной граблями, начинает принимать собственные решения, впервые находит себя, в какой-то момент в подростковом возрасте все мы начинаем этот путь, и пройти его не наступая на грабли невозможно, возможно лишь вынести из этого опыта правильные уроки. Этот путь, по первому отрезку дороги о котором говорится в этом фильме, называется взросление, а имя этой дороги - жизнь. Фильм о том как парень которому уже доводилось лицезреть всю простоту сложности жизни и всю сложность её простоты, оглядываясь назад прощается с не являющемся индивидуальностью наивным мальчиком которым он был.

_________________
Оптимисты учат английский.
Пессимисты зубрят китайский.
А реалисты осваивают автомат Калашникова…
И только японский… изучают для души!
[Профиль] [ЛС]
Показать сообщения:    
Ответить на тему

Текущее время: Сегодня 14:09

Часовой пояс: GMT



Вы не можете начинать темы
Вы не можете отвечать на сообщения
Вы не можете редактировать свои сообщения
Вы не можете удалять свои сообщения
Вы не можете голосовать в опросах
Вы не можете прикреплять файлы к сообщениям
Вы не можете скачивать файлы