Жалобы на работу трекера ! прошу сюда :)

Топовая звезда / Top Star (Пак Чун Хун) [2013, драма, романтика, HDTVRip] [720p]

Ответить на тему
 
Автор Сообщение

Klёпa ®

Стаж: 3 года 2 месяца

Сообщений: 906

Пост 06-Мар-2014 06:06

[Цитировать]

Топовая звезда
Top Star

Год выпуска: 2013
Страна: Южная Корея
Жанр: драма, романтика
Продолжительность: 01:54:22-Перевод: Двухголосый (закадровый) Ольга Гринтиева и Франк Цветков
Сэмпл: http://yadi.sk/d/nNdtb8pqNJ558-
Режиссер: Пак Чун Хун
В ролях: Ом Тхэ Ун, Ким Мин Чжун, Со И Хён, Чжин-гын Ким
Описание: История менеджера, чей актер становится суперзвездой, а затем падает на самое дно…
Доп. информация:
Релиз группы "GREEN TEA"
Перевод: Виктория Широкова
Работа со звуком: Ольга Гринтиева
Оформление постера: Елена Горборукова
Качество: HDTVRip-AVC
Хардсаб: нет
Язык: Русский (закадровый)
Формат: MKV
Видео: AVC (H264), 1280x544, 2320 Kbps, 29.97 fps
Аудио: AC3, 192 Kbps, 48.0 kHz, 2 ch, stereo
Альтернативная раздача: 400p (MKV, H.26x)

MediaInfo

Код:
General
Complete name                            : [GREEN TEA] Top.Star_(720p).mkv
Format                                   : Matroska
Format version                           : Version 2
File size                                : 2.05 GiB
Duration                                 : 1h 54mn
Overall bit rate                         : 2 563 Kbps
Writing application                      : mkvmerge v6.7.0 ('Back to the Ground') 64bit built on Jan  8 2014 15:10:52
Writing library                          : libebml v1.3.0 + libmatroska v1.4.1
Video
ID                                       : 1
Format                                   : AVC
Format/Info                              : Advanced Video Codec
Format profile                           : High@L3.1
Format settings, CABAC                   : Yes
Format settings, ReFrames                : 5 frames
Codec ID                                 : V_MPEG4/ISO/AVC
Duration                                 : 1h 54mn
Bit rate                                 : 2 320 Kbps
Width                                    : 1 280 pixels
Height                                   : 544 pixels
Display aspect ratio                     : 2.35:1
Frame rate mode                          : Constant
Frame rate                               : 29.970 fps
Color space                              : YUV
Chroma subsampling                       : 4:2:0
Bit depth                                : 8 bits
Scan type                                : Progressive
Bits/(Pixel*Frame)                       : 0.111
Stream size                              : 1.85 GiB (91%)
Title                                    : Топовая звезда / Top Star (2013) 720p
Writing library                          : x264 core 130 r2273 b3065e6
Encoding settings                        : cabac=1 / ref=5 / deblock=1:-1:-1 / analyse=0x3:0x133 / me=umh / subme=7 / psy=1 / psy_rd=1.00:0.00 / mixed_ref=1 / me_range=16 / chroma_me=1 / trellis=2 / 8x8dct=1 / cqm=0 / deadzone=21,11 / fast_pskip=0 / chroma_qp_offset=-2 / threads=6 / lookahead_threads=1 / sliced_threads=0 / nr=0 / decimate=1 / interlaced=0 / bluray_compat=0 / constrained_intra=0 / bframes=3 / b_pyramid=2 / b_adapt=2 / b_bias=0 / direct=3 / weightb=1 / open_gop=0 / weightp=2 / keyint=250 / keyint_min=25 / scenecut=40 / intra_refresh=0 / rc_lookahead=50 / rc=crf / mbtree=1 / crf=18.0 / qcomp=0.60 / qpmin=0 / qpmax=69 / qpstep=4 / ip_ratio=1.40 / aq=1:1.00
Language                                 : Korean
Audio
ID                                       : 2
Format                                   : AC-3
Format/Info                              : Audio Coding 3
Mode extension                           : CM (complete main)
Format settings, Endianness              : Big
Codec ID                                 : A_AC3
Duration                                 : 1h 54mn
Bit rate mode                            : Constant
Bit rate                                 : 192 Kbps
Channel(s)                               : 2 channels
Channel positions                        : Front: L R
Sampling rate                            : 48.0 KHz
Bit depth                                : 16 bits
Compression mode                         : Lossy
Stream size                              : 157 MiB (7%)
Title                                    : RUS by GREEN TEA
Language                                 : Russian
[Профиль] [ЛС]
Показать сообщения:    
Ответить на тему

Текущее время: Сегодня 14:09

Часовой пояс: GMT



Вы не можете начинать темы
Вы не можете отвечать на сообщения
Вы не можете редактировать свои сообщения
Вы не можете удалять свои сообщения
Вы не можете голосовать в опросах
Вы не можете прикреплять файлы к сообщениям
Вы не можете скачивать файлы