Жалобы на работу трекера ! прошу сюда :)

Следуя за CNBLUE / Go! CNBLUE [2013 г., Музыка, короткометражный, TVRip]

Ответить на тему
 
Автор Сообщение

Valerius Kafa ®

Стаж: 3 года 2 месяца

Сообщений: 79

Пост 06-Мар-2014 19:14

[Цитировать]

Следуя за СNBLUE
Go! CNBLUE

-Год выпуска: 2014
Страна: Южная Корея
Жанр: Музыка, короткометражный
Продолжительность: 41минута-Перевод: Одноголосый закадровый Валерий Феодосов-В ролях: Ли Чжон Шин, Кан Мин Хёк, Ли Чжон Хён, Чон Ён Хва
Описание: Фильм рассказывает о гастрольных турах, группы CNBLUE из Южной Кореи, в 2013-2014 годах.-Доп. информация:
Релиз группы GREEN TEA
Перевод: Эльза Нордж
Оформление постера: Елена Горборукова
Работа со звуком: Ольга Гринтиева-Качество: TVRip
Видео кодек: Другой MPEG4
Аудио кодек: AC3
Видео: MPEG4 1280*720(16:9)
Аудио: AC3 48.0 KHz 192 kbps

MediaInfo

Format : Matroska
File size : 671 MiB
Duration : 41mn 44s
Overall bit rate : 2 248 Kbps
Encoded date : UTC 2014-03-06 18:01:45
Writing application : mkvmerge v5.7.0 ('The Whirlwind') built on Jul 8 2012 20:08:51
Writing library : libebml v1.2.3 + libmatroska v1.3.0
Video #1
ID : 1
Format : AVC
Format/Info : Advanced Video Codec
Format profile : High@L3.1
Format settings, CABAC : Yes
Format settings, ReFrames : 1 frame
Muxing mode : Header stripping
Codec ID : V_MPEG4/ISO/AVC
Duration : 41mn 44s
Bit rate : 2 011 Kbps
Width : 1 280 pixels
Height : 720 pixels
Display aspect ratio : 16:9
Frame rate mode : Variable
Frame rate : 29.970 fps
Color space : YUV
Chroma subsampling : 4:2:0
Bit depth : 8 bits
Scan type : Progressive
Bits/(Pixel*Frame) : 0.073
Stream size : 600 MiB (89%)
Audio #2
ID : 2
Format : AC-3
Format/Info : Audio Coding 3
Mode extension : CM (complete main)
Muxing mode : Header stripping
Codec ID : A_AC3
Duration : 41mn 44s
Bit rate mode : Constant
Bit rate : 192 Kbps
Channel(s) : 2 channels
Channel positions : Front: L R
Sampling rate : 48.0 KHz
Bit depth : 16 bits
Compression mode : Lossy
Stream size : 57.3 MiB (9%)

Скриншоты

Озвучено по заказу зрительницы GREEN TEA.

_________________
Подпись отключена за нарушение правил форума


Последний раз редактировалось: Valerius Kafa (2014-03-29 05:20), всего редактировалось 1 раз
[Профиль] [ЛС]

record

Стаж: 3 года

Сообщений: 7

Откуда: Украина, Киев

Пост 06-Мар-2014 22:21 (спустя 3 часа)

[Цитировать]

Огромное спасибо за столь прекрасный перевод и качество видео.
По больше таких видео с певцами
[Профиль] [ЛС]

Ланочка10_83

Стаж: 3 года 1 месяц

Сообщений: 131

Пост 07-Мар-2014 02:17 (спустя 3 часа)

[Цитировать]

Спасибо!!! :)
[Профиль] [ЛС]

Inessa

Стаж: 3 года 9 месяцев

Сообщений: 40

Пост 07-Мар-2014 11:07 (спустя 8 часов)

[Цитировать]

Огромное спасибо!
[Профиль] [ЛС]

EL_1991

Стаж: 3 года 10 месяцев

Сообщений: 36

Пост 07-Мар-2014 14:38 (спустя 3 часа)

[Цитировать]

Где можно посмотреть список таких фильмов по певцов и актеров?
[Профиль] [ЛС]

rodqer

Стаж: 3 года 10 месяцев

Сообщений: 417

Откуда: кемерово

Пост 07-Мар-2014 16:29 (спустя 1 час 51 минута)

[Цитировать]

спасибо))))))
[Профиль] [ЛС]

BOICE

Стаж: 2 года 10 месяцев

Сообщений: 3

Пост 28-Мар-2014 14:19 (спустя 20 дней)

[Цитировать]

Ваааай, я в восхищении!!!
Спасибо Green tea за вашу работу ^о^
Так долго ждала этого *Q*
[Профиль] [ЛС]

PhoenixYuong

Стаж: 3 года 9 месяцев

Сообщений: 320

Откуда: Беларусь

Пост 28-Мар-2014 14:45 (спустя 26 минут)

[Цитировать]

Ох, а интересно то как!!! УХ!!!))) Обожаю такие вещи!
Громаднейшее спасибо!!!!!!

_________________
[Профиль] [ЛС]

Himerka-Lelik

Стаж: 3 года 1 месяц

Сообщений: 10

Пост 03-Апр-2014 19:07 (спустя 6 дней)

[Цитировать]

Ой, какая прелесть.... Спасибо большое!
[Профиль] [ЛС]

diva.ufa

Стаж: 3 года 2 месяца

Сообщений: 19

Пост 13-Фев-2016 21:21 (спустя 1 год 10 месяцев)

[Цитировать]

Ох!.. Раздайтесь! Плиззз!
[Профиль] [ЛС]
Показать сообщения:    
Ответить на тему

Текущее время: Сегодня 16:01

Часовой пояс: GMT



Вы не можете начинать темы
Вы не можете отвечать на сообщения
Вы не можете редактировать свои сообщения
Вы не можете удалять свои сообщения
Вы не можете голосовать в опросах
Вы не можете прикреплять файлы к сообщениям
Вы не можете скачивать файлы