Жалобы на работу трекера ! прошу сюда :)

Сделай шаг: Лови момент / Make Your Move (Дуан Адлер) [2013, США, Корея Южная, мелодрама, HDRip] DVO GREEN TEA

Ответить на тему
 
Автор Сообщение

Nas ®

Стаж: 3 года 10 месяцев

Сообщений: 372

Пост 11-Апр-2014 18:18

[Цитировать]

Сделай шаг: Лови момент
Make Your Move

-
Страна: США, Корея Южная
Жанр: мелодрама
Год выпуска: 2013
Продолжительность: 01:49:57
-
Перевод: двухголосый закадровый Ольга Гринтиева и Франк Цветков
-
Cубтитры: нет
Режиссер и сценарист: Дуан Адлер
Продюсер: Ли Су Ман, Патриция Чун, Эрик Хецель
Оператор: Грегори Миддлтон
Композитор: Майкл Коркоран, Эрик Голдман
Художник: Анастасия Масаро, Алекс Кэвэна, Патриция Кучия
Монтаж: Мелисса Кент
В ролях:
Дерек Хаф, БоА, Уилл Юн Ли, Уэсли Джонатан, Изабелла Мико, Майкл Мэндо, Рик Гонсалес, Дэн Лория, Эллисон Холкер, Джефферсон Браун
Описание:
История о двух танцорах, которые выросли в разных условиях. Но по воле судьбе оба они окажутся в Нью-Йорке и будут работать друг с другом в подземном клубе. Между ними будет соперничество, но потом история превращается в историю «Ромео и Джульетта» когда двое влюбляются.
-
Доп. информация:
Релиз: группа "GREEN TEA"
Перевод субтитров: Эльза Нордж
Оформление постера: Елена Горборукова
Работа со звуком: Ольга Гринтиева

-
Качество видео: HDRip
Формат видео: AVI
Видео: XviD, 1954 Кбит/с, 720x384, 23.976 кадр/с
Аудио: MP3, 48,0 Гц, 192 Кбит/сек, 2 канала
ОСТ к дораме Сделай шаг: Лови момент

MediaInfo

General
Complete name : D:\Видео\[GREEN TEA ] Фильмы\[GREEN TEA] Сделай шаг. Лови момент.avi
Format : AVI
Format/Info : Audio Video Interleave
File size : 1.66 GiB
Duration : 1h 49mn
Overall bit rate : 2 155 Kbps
Writing application : VirtualDubMod 1.5.10.2 (build 2540/release)
Writing library : VirtualDubMod build 2540/release
Video
ID : 0
Format : MPEG-4 Visual
Format profile : Advanced Simple@L5
Format settings, BVOP : 1
Format settings, QPel : No
Format settings, GMC : No warppoints
Format settings, Matrix : Default (H.263)
Muxing mode : Packed bitstream
Codec ID : XVID
Codec ID/Hint : XviD
Duration : 1h 49mn
Bit rate : 1 954 Kbps
Width : 720 pixels
Height : 384 pixels
Display aspect ratio : 1.85:1
Frame rate : 23.976 fps
Color space : YUV
Chroma subsampling : 4:2:0
Bit depth : 8 bits
Scan type : Progressive
Compression mode : Lossy
Bits/(Pixel*Frame) : 0.295
Stream size : 1.50 GiB (91%)
Writing library : XviD 1.2.1 (UTC 2008-12-04)
Audio
ID : 1
Format : MPEG Audio
Format version : Version 1
Format profile : Layer 3
Codec ID : 55
Codec ID/Hint : MP3
Duration : 1h 49mn
Bit rate mode : Constant
Bit rate : 192 Kbps
Channel(s) : 2 channels
Sampling rate : 48.0 KHz
Compression mode : Lossy
Stream size : 151 MiB (9%)
Alignment : Aligned on interleaves
Interleave, duration : 42 ms (1.00 video frame)
Interleave, preload duration : 504 ms

Скриншоты

[Профиль] [ЛС]

rodqer

Стаж: 3 года 10 месяцев

Сообщений: 417

Откуда: кемерово

Пост 12-Апр-2014 16:56 (спустя 22 часа)

[Цитировать]

спасибо большое ))))
[Профиль] [ЛС]

doramaland

Стаж: 2 года 8 месяцев

Сообщений: 14

Пост 07-Май-2014 21:47 (спустя 25 дней)

[Цитировать]

все больше и больше радует нас греен-теа,спс за все что ви делаете для нас
[Профиль] [ЛС]

doramaland

Стаж: 2 года 8 месяцев

Сообщений: 14

Пост 07-Май-2014 21:50 (спустя 3 минуты)

[Цитировать]

Аккаунт заблокирован,и как єто понимать(ваш укозовский сайт),забанен что ли?
[Профиль] [ЛС]

Lexicuslex

Стаж: 1 год 3 месяца

Сообщений: 28

Пост 12-Авг-2015 05:24 (спустя 1 год 3 месяца)

[Цитировать]

народ, дайте скорости!!!
[Профиль] [ЛС]
Показать сообщения:    
Ответить на тему

Текущее время: Сегодня 16:34

Часовой пояс: GMT



Вы не можете начинать темы
Вы не можете отвечать на сообщения
Вы не можете редактировать свои сообщения
Вы не можете удалять свои сообщения
Вы не можете голосовать в опросах
Вы не можете прикреплять файлы к сообщениям
Вы не можете скачивать файлы