Жалобы на работу трекера ! прошу сюда :)

Подозреваемый / The Suspect (Вон Син Ён) [2013 г., боевик, триллер, DTVRip] [RAW] [360p] DVO GREEN TEA

Ответить на тему
 
Автор Сообщение

Klёпa ®

Стаж: 3 года 2 месяца

Сообщений: 906

Пост 12-Апр-2014 16:15

[Цитировать]

Подозреваемый
Yonguija / The Suspect
Год выпуска: 2013
Страна: Южная Корея
Жанр: боевик, триллер
Продолжительность: 02:17:48
Премьера: 24.12.2013-Озвучивание: двухголосое (закадровое) - Ольга Гринтиева и Константин Романов
Сэмпл: http://yadi.sk/d/FC6oe6c2MKWZh-Режиссёр: Вон Син Ён (Won Shin-Yeon / 원신연)
В ролях:
Гон Ю (Gong Yoo / 공유) - Чи Дон Чхоль
Пак Хи Сун (Park Hee Soon / 박희순) - Мин Се Хун
Ю Да Ин (Yoo Da In / 유다인) - репортёр Чхве Кён Хи
Чжо Сон Ха (Jo Seong Ha / 조성하) - Ким Сок Хо
Чо Чжэ Юн (Jo Jae Yoon / 조재윤) -
Ли Дон Чжин (Lee Dong Jin / 이동진) -
Сон Чэ Рим (Song Jae Rim / 송재림) -
и др.-Описание:
Северокорейский шпион (Гон Ю), оказавшись покинутым своей страной, оседает в Южной Корее. Вскоре он становится главным подозреваемым в деле об убийстве генерального директора крупной корпорации. Теперь подозреваемому нужно докопаться до правды.-Доп.информация:
Релиз группы "GREEN TEA"
Перевод: фансаб-группа "МАНИЯ"
▸ переводчики: awlinas, kyzne4ik, Харли, Kemari, Саша Иосифова
▸ консультанты-переводчики: Kemari, Daniel Jin
▸ редакторы: Харли, awlinas
▸ тайпсеттер: Сана
Работа со звуком: Ольга Гринтиева
Оформление постера: Михаил Золотов-Качество видео: DTVRip
Субтитры: без хардсаба
Формат: AVI
Видео кодек: XviD
Аудио кодек: АС3
Видео: 720x304, 1345 Кбит/с, 29.97 fps
Аудио: 48.0 КГц, 192 Кбит/с, 2 канала
ОСТ к фильму Подозреваемый
!!! Альтернативная раздача: 720p (MKV, H264)

MediaInfo

Код:
General
Format                                   : AVI
Format/Info                              : Audio Video Interleave
File size                                : 1.49 GiB
Duration                                 : 2h 17mn
Overall bit rate                         : 1 547 Kbps
Movie name                               : Подозреваемый / The Suspect (2013) by GREEN TEA
Writing application                      : VirtualDubMod 1.5.10.2 (build 2542/release)
Writing library                          : VirtualDubMod build 2542/release
Video
ID                                       : 0
Format                                   : MPEG-4 Visual
Format profile                           : Advanced Simple@L5
Format settings, BVOP                    : 2
Format settings, QPel                    : No
Format settings, GMC                     : No warppoints
Format settings, Matrix                  : Default (H.263)
Codec ID                                 : XVID
Codec ID/Hint                            : XviD
Duration                                 : 2h 17mn
Bit rate                                 : 1 345 Kbps
Width                                    : 720 pixels
Height                                   : 304 pixels
Display aspect ratio                     : 2.35:1
Frame rate                               : 23.976 fps
Color space                              : YUV
Chroma subsampling                       : 4:2:0
Bit depth                                : 8 bits
Scan type                                : Progressive
Compression mode                         : Lossy
Bits/(Pixel*Frame)                       : 0.256
Stream size                              : 1.29 GiB (87%)
Writing library                          : XviD 1.2.1 (UTC 2008-12-04)
Audio
ID                                       : 1
Format                                   : AC-3
Format/Info                              : Audio Coding 3
Mode extension                           : CM (complete main)
Format settings, Endianness              : Big
Codec ID                                 : 2000
Duration                                 : 2h 17mn
Bit rate mode                            : Constant
Bit rate                                 : 192 Kbps
Channel(s)                               : 2 channels
Channel positions                        : Front: L R
Sampling rate                            : 48.0 KHz
Bit depth                                : 16 bits
Compression mode                         : Lossy
Stream size                              : 189 MiB (12%)
Alignment                                : Split accross interleaves
Interleave, duration                     : 42 ms (1.00 video frame)
Interleave, preload duration             : 500 ms
Title                                    : GREEN TEA DVO (Ольга Гринтиева, Константин Романов)

Скриншоты




Последний раз редактировалось: Klёпa (2014-04-12 19:55), всего редактировалось 2 раз(а)
[Профиль] [ЛС]

rodqer

Стаж: 3 года 10 месяцев

Сообщений: 417

Откуда: кемерово

Пост 12-Апр-2014 16:57 (спустя 41 минута)

[Цитировать]

)))) спасибо
[Профиль] [ЛС]

GoXa

Стаж: 2 года 3 месяца

Сообщений: 4

Откуда: Республика Беларусь

Пост 21-Авг-2014 23:55 (спустя 4 месяца 9 дней)

[Цитировать]

Драйвовый фильм!

_________________
In Media Stat Veritas
[Профиль] [ЛС]
Показать сообщения:    
Ответить на тему

Текущее время: Сегодня 22:20

Часовой пояс: GMT



Вы не можете начинать темы
Вы не можете отвечать на сообщения
Вы не можете редактировать свои сообщения
Вы не можете удалять свои сообщения
Вы не можете голосовать в опросах
Вы не можете прикреплять файлы к сообщениям
Вы не можете скачивать файлы