Жалобы на работу трекера ! прошу сюда :)

Мисс перемена / Miss Change (Лок Мэн Люн / Санни Люк) [2013, Корея, боевик, DVDRip] DVO GREEN TEA

Ответить на тему
 
Автор Сообщение

Nas ®

Стаж: 3 года 10 месяцев

Сообщений: 372

Пост 25-Апр-2014 10:56

[Цитировать]

Мисс перемена / Miss Change
-
Страна: Южная Корея
Жанр: комедия, драма, эротика, мистика
Год выпуска: 2013
Продолжительность: 01:40:51
-
Перевод: двухголосый закадровый Анастасия Романова и Макс Коллапс
-
Режиссер: Чон Чхо Син / Jeong Cho-sin
В ролях:
Сон Сам Дон, Ли Су Чжон, Чон Ын У, Син Ю Ю и другие
Описание:
Фильм «Мисс Перемена» — комическая драма, где описывается история тайной и личной жизни пары молодых людей.
Главный герой фильма — адвокат Ли Чжэ Чиль — ни разу в жизни не встречался с девушкой. Он даже не может уверенно смотреть в глаза женщинам, а если в зале суда прокурор или судья — представительницы прекрасного пола, то он проигрывает им во всех спорах и обсуждениях.
Однако Чжэ Чиль уже 10 лет как безответно влюблен в Су Хён, сотрудницу юридической компании «Эис». И вот жизнь Чже Чиля меняется: одним дождливым вечером он видит лежащую без сознания на дороге девушку. Он отводит ее к себе домой и укладывает в кровать. Затем происходит невероятное: Чжэ Чиль меняется телами с этой девушкой!
-
Доп. информация:
Перевод субтитров: Суворов Евгений
Релиз: группа "GREEN TEA"
Оформление постера: Елена Горборукова
Координация: Екатерина Амальфи
Работа со звуком: Ольга Гринтиева
Возрастное ограничение 18+
-
Видео: AVI, 2580 Кбит/с, 1280x544, 23.976 кадр/с
Аудио: MP3, 48,0 Гц, 192 Кбит/сек, 2 канала

MediaInfo

Format : AVI
Format/Info : Audio Video Interleave
File size : 1.96 GiB
Duration : 1h 41mn
Overall bit rate : 2 776 Kbps
Writing application : VirtualDubMod 1.5.10.2 (build 2540/release)
Writing library : VirtualDubMod build 2540/release
Video
ID : 0
Format : AVC
Format/Info : Advanced Video Codec
Format profile : High@L4.1
Format settings, CABAC : Yes
Format settings, ReFrames : 11 frames
Codec ID : h264
Duration : 1h 41mn
Bit rate : 2 580 Kbps
Width : 1 280 pixels
Height : 544 pixels
Display aspect ratio : 2.35:1
Frame rate : 23.976 fps
Color space : YUV
Chroma subsampling : 4:2:0
Bit depth : 8 bits
Scan type : Progressive
Bits/(Pixel*Frame) : 0.155
Stream size : 1.82 GiB (93%)
Writing library : x264 core 130 r2273 b3065e6
Encoding settings : cabac=1 / ref=11 / deblock=1:-2:-1 / analyse=0x3:0x133 / me=umh / subme=10 / psy=1 / psy_rd=1.00:0.20 / mixed_ref=1 / me_range=32 / chroma_me=1 / trellis=2 / 8x8dct=1 / cqm=0 / deadzone=21,11 / fast_pskip=0 / chroma_qp_offset=-3 / threads=6 / lookahead_threads=1 / sliced_threads=0 / nr=0 / decimate=0 / interlaced=0 / bluray_compat=0 / constrained_intra=0 / bframes=4 / b_pyramid=2 / b_adapt=2 / b_bias=0 / direct=3 / weightb=1 / open_gop=0 / weightp=2 / keyint=250 / keyint_min=23 / scenecut=40 / intra_refresh=0 / rc_lookahead=60 / rc=2pass / mbtree=1 / bitrate=2580 / ratetol=1.0 / qcomp=0.60 / qpmin=0 / qpmax=69 / qpstep=4 / cplxblur=20.0 / qblur=0.5 / ip_ratio=1.40 / aq=1:1.00
Audio
ID : 1
Format : MPEG Audio
Format version : Version 1
Format profile : Layer 3
Mode : Joint stereo
Codec ID : 55
Codec ID/Hint : MP3
Duration : 1h 41mn
Bit rate mode : Constant
Bit rate : 192 Kbps
Channel(s) : 2 channels
Sampling rate : 48.0 KHz
Compression mode : Lossy
Stream size : 139 MiB (7%)
Alignment : Aligned on interleaves
Interleave, duration : 42 ms (1.00 video frame)
Interleave, preload duration : 504 ms

Скриншоты

[Профиль] [ЛС]

rodqer

Стаж: 3 года 10 месяцев

Сообщений: 417

Откуда: кемерово

Пост 27-Апр-2014 10:55 (спустя 1 день 23 часа)

[Цитировать]

Nas, спасибо )))
[Профиль] [ЛС]

eon

Стаж: 2 года 11 месяцев

Сообщений: 9

Пост 01-Май-2014 07:27 (спустя 3 дня)

[Цитировать]

Странный фильм, сначало интересно, смотриш сюжет, а потом ... бредовый обмен телами.
[Профиль] [ЛС]
Показать сообщения:    
Ответить на тему

Текущее время: Сегодня 16:33

Часовой пояс: GMT



Вы не можете начинать темы
Вы не можете отвечать на сообщения
Вы не можете редактировать свои сообщения
Вы не можете удалять свои сообщения
Вы не можете голосовать в опросах
Вы не можете прикреплять файлы к сообщениям
Вы не можете скачивать файлы