Жалобы на работу трекера ! прошу сюда :)

Наша Сунхи / Woori Sunhee / Our Sunhi (Хон Сан Су) [2013 г., мелодрама, комедия, HDTVRip] [RAW] [720p] DVO GREEN TEA

Ответить на тему
 
Автор Сообщение

Klёпa ®

Стаж: 3 года 2 месяца

Сообщений: 906

Пост 26-Апр-2014 20:40

[Цитировать]

Наша Сунхи
Woori Sunhee / Our Sunhi

Год выпуска: 2013
Страна: Южная Корея
Жанр: мелодрама, комедия
Продолжительность: 01:28:22
Премьера: 10.08.2013-Озвучивание: двухголосое (закадровое) - Анастасия Романова и Макс Коллапс
Сэмпл: http://yadi.sk/d/i6BhSm__NLom4-Режиссёр: Хон Сан Су (Hong Sang Soo / )
В ролях:
Чон Ю Ми (Jung Yoo Mi / 정유미) - Сунхи
Чон Чжэ Ён (Jeong Jae Yeong / 정재영) -
Ким Сан Чжун (Kim Sang Jung / 김상중) - профессор Чхве
Ли Мин У (Lee Min Woo / 이민우) -
Ли Сон Гюн (Lee Seon Gyun / 이선균) -
Чжи Вон Йе (Ye Ji Won / 이유정) -
и др.-Описание:
Сунхи закончила колледж. Её специальность — кино. Спустя много времени она вновь посещает колледж, чтобы попросить профессора Чхве написать рекомендательное письмо для её дальнейшего обучения в США. По дороге она встречает двух мужчин, которых знала раньше...-Доп.информация:
Релиз группы "GREEN TEA"
Перевод: Наталия Кондакова
Редактор: Виктория Широкова
Работа со звуком: Ольга Гринтиева
Оформление постера: Елена Горборукова -Качество видео: HDTVRip
Субтитры: без хардсаба
Формат: MKV
Видео кодек: H264 (AVC)
Аудио кодек: MP3
Видео: 1270x688, 3000 Кбит/с, 29.97 fps
Аудио: 48.0 КГц, 192 Кбит/с, 2 канала
!!! Альтернативная раздача: 400p (AVI, XviD)

MediaInfo

Код:
General
Format                                   : Matroska
Format version                           : Version 2
File size                                : 1.97 GiB
Duration                                 : 1h 28mn
Overall bit rate                         : 3 194 Kbps
Encoded date                             : UTC 2014-04-19 20:38:17
Writing application                      : mkvmerge v6.7.0 ('Back to the Ground') 64bit built on Jan  8 2014 15:10:52
Writing library                          : libebml v1.3.0 + libmatroska v1.4.1
Video
ID                                       : 1
Format                                   : AVC
Format/Info                              : Advanced Video Codec
Format profile                           : High@L4.1
Format settings, CABAC                   : Yes
Format settings, ReFrames                : 5 frames
Codec ID                                 : V_MPEG4/ISO/AVC
Duration                                 : 1h 28mn
Bit rate                                 : 3 000 Kbps
Width                                    : 1 280 pixels
Height                                   : 688 pixels
Display aspect ratio                     : 1.85:1
Frame rate mode                          : Constant
Frame rate                               : 29.970 fps
Color space                              : YUV
Chroma subsampling                       : 4:2:0
Bit depth                                : 8 bits
Scan type                                : Progressive
Bits/(Pixel*Frame)                       : 0.114
Stream size                              : 1.81 GiB (92%)
Title                                    : Наша Сунхи / Our Sunhi (2013)
Writing library                          : x264 core 130 r2273 b3065e6
Encoding settings                        : cabac=1 / ref=5 / deblock=1:-1:-1 / analyse=0x3:0x133 / me=umh / subme=9 / psy=1 / psy_rd=1.00:0.00 / mixed_ref=1 / me_range=24 / chroma_me=1 / trellis=2 / 8x8dct=1 / cqm=0 / deadzone=21,11 / fast_pskip=0 / chroma_qp_offset=-2 / threads=6 / lookahead_threads=1 / sliced_threads=0 / nr=0 / decimate=1 / interlaced=0 / bluray_compat=0 / constrained_intra=0 / bframes=4 / b_pyramid=2 / b_adapt=2 / b_bias=0 / direct=3 / weightb=1 / open_gop=0 / weightp=2 / keyint=250 / keyint_min=25 / scenecut=40 / intra_refresh=0 / rc_lookahead=60 / rc=2pass / mbtree=1 / bitrate=3000 / ratetol=1.0 / qcomp=0.60 / qpmin=10 / qpmax=51 / qpstep=4 / cplxblur=20.0 / qblur=0.5 / ip_ratio=1.40 / aq=1:1.00
Language                                 : Korean
Default                                  : Yes
Forced                                   : No
Audio
ID                                       : 2
Format                                   : MPEG Audio
Format version                           : Version 1
Format profile                           : Layer 3
Mode                                     : Joint stereo
Codec ID                                 : A_MPEG/L3
Codec ID/Hint                            : MP3
Duration                                 : 1h 28mn
Bit rate mode                            : Constant
Bit rate                                 : 192 Kbps
Channel(s)                               : 2 channels
Sampling rate                            : 48.0 KHz
Compression mode                         : Lossy
Stream size                              : 121 MiB (6%)
Title                                    : DVO GREEN TEA
Language                                 : Russian
Default                                  : Yes
Forced                                   : No

Скриншоты




Последний раз редактировалось: Klёпa (2014-08-15 17:37), всего редактировалось 2 раз(а)
[Профиль] [ЛС]

AlexStarRu

Стаж: 3 года 9 месяцев

Сообщений: 148

Пост 15-Май-2014 14:55 (спустя 18 дней)

[Цитировать]

Вот вообще не понял, о чём фильм :).
Встречаются люди, сидят в кафешках, напиваются. О чём-то говорят. Между этим разговаривают по телефону друг с другом. Действия, как такого, нет вообще.
Ну очень красивая природа в парке в конце фильма
[Профиль] [ЛС]
Показать сообщения:    
Ответить на тему

Текущее время: Сегодня 20:40

Часовой пояс: GMT



Вы не можете начинать темы
Вы не можете отвечать на сообщения
Вы не можете редактировать свои сообщения
Вы не можете удалять свои сообщения
Вы не можете голосовать в опросах
Вы не можете прикреплять файлы к сообщениям
Вы не можете скачивать файлы