Жалобы на работу трекера ! прошу сюда :)

Наша Сунхи / Woori Sunhee / Our Sunhi (Хон Сан Су) [2013 г., мелодрама, комедия, DTVRip] [RAW] [400p] DVO GREEN TEA

Ответить на тему
 
Автор Сообщение

Klёпa ®

Стаж: 3 года 1 месяц

Сообщений: 906

Пост 26-Апр-2014 21:07

[Цитировать]

Наша Сунхи
Woori Sunhee / Our Sunhi

Год выпуска: 2013
Страна: Южная Корея
Жанр: мелодрама, комедия
Продолжительность: 01:28:22
Премьера: 10.08.2013-Озвучивание: двухголосое (закадровое) - Анастасия Романова и Макс Коллапс
Сэмпл: http://yadi.sk/d/Emnz9ftONLnpS-Режиссёр: Хон Сан Су (Hong Sang Soo / )
В ролях:
Чон Ю Ми (Jung Yoo Mi / 정유미) - Сунхи
Чон Чжэ Ён (Jeong Jae Yeong / 정재영) -
Ким Сан Чжун (Kim Sang Jung / 김상중) - профессор Чхве
Ли Мин У (Lee Min Woo / 이민우) -
Ли Сон Гюн (Lee Seon Gyun / 이선균) -
Чжи Вон Йе (Ye Ji Won / 이유정) -
и др.-Описание:
Сунхи закончила колледж. Её специальность — кино. Спустя много времени она вновь посещает колледж, чтобы попросить профессора Чхве написать рекомендательное письмо для её дальнейшего обучения в США. По дороге она встречает двух мужчин, которых знала раньше...-Доп.информация:
Релиз группы "GREEN TEA"
Перевод: Наталия Кондакова
Редактор: Виктория Широкова
Работа со звуком: Ольга Гринтиева
Оформление постера: Елена Горборукова -Качество видео: DTVRip
Субтитры: без хардсаба
Формат: AVI
Видео кодек: XviD
Аудио кодек: MP3
Видео: 720x384, 1450 Кбит/с, 29.97 fps
Аудио: 48.0 КГц, 192 Кбит/с, 2 канала
!!! Альтернативная раздача: 720p (AVI, XviD)

MediaInfo

Код:
General
Complete name                            : [GREEN TEA] Наша Сунхи (400p).avi
Format                                   : AVI
Format/Info                              : Audio Video Interleave
File size                                : 1.02 GiB
Duration                                 : 1h 28mn
Overall bit rate                         : 1 653 Kbps
Writing application                      : VirtualDubMod 1.5.10.3 || (build 2550/release)
Writing library                          : VirtualDubMod build 2550/release
Video
ID                                       : 0
Format                                   : MPEG-4 Visual
Format profile                           : Advanced Simple@L5
Format settings, BVOP                    : 2
Format settings, QPel                    : No
Format settings, GMC                     : No warppoints
Format settings, Matrix                  : Default (MPEG)
Codec ID                                 : XVID
Codec ID/Hint                            : XviD
Duration                                 : 1h 28mn
Bit rate                                 : 1 449 Kbps
Width                                    : 720 pixels
Height                                   : 384 pixels
Display aspect ratio                     : 1.85:1
Frame rate                               : 29.970 fps
Color space                              : YUV
Chroma subsampling                       : 4:2:0
Bit depth                                : 8 bits
Scan type                                : Progressive
Compression mode                         : Lossy
Bits/(Pixel*Frame)                       : 0.175
Stream size                              : 916 MiB (88%)
Writing library                          : XviD 1.2.1 (UTC 2008-12-04)
Audio
ID                                       : 1
Format                                   : MPEG Audio
Format version                           : Version 1
Format profile                           : Layer 3
Mode                                     : Joint stereo
Codec ID                                 : 55
Codec ID/Hint                            : MP3
Duration                                 : 1h 28mn
Bit rate mode                            : Constant
Bit rate                                 : 192 Kbps
Channel(s)                               : 2 channels
Sampling rate                            : 48.0 KHz
Compression mode                         : Lossy
Stream size                              : 121 MiB (12%)
Alignment                                : Aligned on interleaves
Interleave, duration                     : 33 ms (1.00 video frame)
Interleave, preload duration             : 504 ms

Скриншоты




Последний раз редактировалось: Klёпa (2014-08-15 17:37), всего редактировалось 4 раз(а)
[Профиль] [ЛС]

rodqer

Стаж: 3 года 10 месяцев

Сообщений: 417

Откуда: кемерово

Пост 27-Апр-2014 10:53 (спустя 13 часов)

[Цитировать]

спасибо
[Профиль] [ЛС]
Показать сообщения:    
Ответить на тему

Текущее время: Сегодня 09:39

Часовой пояс: GMT



Вы не можете начинать темы
Вы не можете отвечать на сообщения
Вы не можете редактировать свои сообщения
Вы не можете удалять свои сообщения
Вы не можете голосовать в опросах
Вы не можете прикреплять файлы к сообщениям
Вы не можете скачивать файлы