Жалобы на работу трекера ! прошу сюда :)

Мой маленький герой / My Little Hero / Mai liteul hiero (Ким Сон-Хун / Kim Seong-hoon) [2013, драма, музыка, HDRip] [400p] VO GREEN TEA

Ответить на тему
 
Автор Сообщение

Klёпa ®

Стаж: 3 года 2 месяца

Сообщений: 906

Пост 14-Авг-2014 22:11

[Цитировать]

Мой маленький герой
Mai liteul hiero / My Little Hero

Год выпуска: 2013
Страна: Южная Корея
Жанр: драма, музыка
Продолжительность: 02:15:36-Перевод: Одноголосый (закадровый) Екатерина Юрьева
Сэмпл: http://yadi.sk/-
Режиссер: Ким Сон-Хун (Kim Sung Hoon)
В ролях:
Ким Рэ Вон (Kim Rae Won / 김래원) - Ю Иль Хан
Чжи Дэ Хан (Ji Dae Han / 지대한) - Ён Кван
Чо Ан (Jo An / 조안) - Сон Хи
Ли Кван Су (Lee Kwang Soo / 이광수) - Чон Иль
Ли Сон Мин (Lee Sung Min / 이성민) - Хи Сок
и др.
Описание: История фильма поведает нам о том, как намыкавшийся режиссер, устав от полной "какофонии" и "фальшивых нот" своей жизни, решает, бросив все - свой мюзикл и старых друзей, уехать в Америку... Покорять Бродвей. Но тут сама злодейка-судьба решает сыграть на тщеславии и честолюбии опустошенного человека, преподнося ему шанс, которого он так долго ждал. Ю Иль Хана приглашают стать участником музыкального шоу-соревнования, выиграв которое вместе с напарником, ему выпал бы шанс поставить прогремевший на всю страну, а потом и за ее пределами, мюзикл "Король Чосона".
Но, что поделать, если по случайности, у тебя в напарниках оказывается маленький мальчик, мальчик с преданными глазами, ангельским голосом, но, увы... далеко не корейской внешностью? Удастся ли этот союз? Растопит ли филлипинский мальчик охладевшее сердце музыкального гения?
Доп. информация:
Релиз группы "GREEN TEA"
Перевод: фансаб-группа "BiG BOSS"
Работа со звуком: Екатерина Юрьева
Оформление постера: Елена Горборукова
Качество: HDRip
Формат: AVI
Видео кодек: XviD
Аудио кодек: MP3
Видео: 720х304, ~1335 Кбит/с, 23.976 fps
Аудио: 48 kHz, 192 Кбит/c, 2 канала
!!! Альтернативная раздача: 720p (AVI, H264)

MediaInfo

Код:
General
Complete name                            : [GREEN TEA] Mу.Littlе.Неrо (360p).avi
Format                                   : AVI
Format/Info                              : Audio Video Interleave
File size                                : 1.46 GiB
Duration                                 : 2h 15mn
Overall bit rate                         : 1 535 Kbps
Movie name                               : Мой маленький герой / My Little Hero (2013)
Writing application                      : VirtualDubMod 1.5.10.2 (build 2542/release)
Writing library                          : VirtualDubMod build 2542/release
Video
ID                                       : 0
Format                                   : MPEG-4 Visual
Format profile                           : Advanced Simple@L5
Format settings, BVOP                    : 2
Format settings, QPel                    : No
Format settings, GMC                     : No warppoints
Format settings, Matrix                  : Default (MPEG)
Codec ID                                 : XVID
Codec ID/Hint                            : XviD
Duration                                 : 2h 15mn
Bit rate                                 : 1 334 Kbps
Width                                    : 720 pixels
Height                                   : 304 pixels
Display aspect ratio                     : 2.35:1
Frame rate                               : 23.976 fps
Color space                              : YUV
Chroma subsampling                       : 4:2:0
Bit depth                                : 8 bits
Scan type                                : Progressive
Compression mode                         : Lossy
Bits/(Pixel*Frame)                       : 0.254
Stream size                              : 1.26 GiB (87%)
Writing library                          : XviD 1.2.1 (UTC 2008-12-04)
Audio
ID                                       : 1
Format                                   : MPEG Audio
Format version                           : Version 1
Format profile                           : Layer 3
Mode                                     : Joint stereo
Codec ID                                 : 55
Codec ID/Hint                            : MP3
Duration                                 : 2h 15mn
Bit rate mode                            : Constant
Bit rate                                 : 192 Kbps
Channel(s)                               : 2 channels
Sampling rate                            : 48.0 KHz
Compression mode                         : Lossy
Stream size                              : 186 MiB (13%)
Alignment                                : Aligned on interleaves
Interleave, duration                     : 42 ms (1.00 video frame)
Interleave, preload duration             : 504 ms
Title                                    : GREEN TEA VO

Скриншоты


[Профиль] [ЛС]

PhoenixYuong

Стаж: 3 года 9 месяцев

Сообщений: 320

Откуда: Беларусь

Пост 20-Авг-2014 19:55 (спустя 5 дней)

[Цитировать]

Замечательный фильм! Трогательный, жизненный, ну в общем классный!!!
Спасибо огромное за выбор и за работу над проектом!!!!!!

_________________
[Профиль] [ЛС]
Показать сообщения:    
Ответить на тему

Текущее время: Сегодня 16:07

Часовой пояс: GMT



Вы не можете начинать темы
Вы не можете отвечать на сообщения
Вы не можете редактировать свои сообщения
Вы не можете удалять свои сообщения
Вы не можете голосовать в опросах
Вы не можете прикреплять файлы к сообщениям
Вы не можете скачивать файлы