Жалобы на работу трекера ! прошу сюда :)

Любовь слепа / Mind and Love / Love is Blind (Lee Jang Soo / Ли Чжан Су) [2009, Южная Корея, романтика, комедия, TVRip] DVO GREEN TEA

Ответить на тему
 
Автор Сообщение

Амальфи ®

Стаж: 3 года 10 месяцев

Сообщений: 264

Пост 20-Янв-2013 15:34

[Цитировать]

Любовь слепа / Mind and Love / Love is Blind
Страна: Южная Корея
Жанр: романтика, комедия
Год выпуска: 2009
Продолжительность: 01;40
Перевод: двухголосый закадровый lama и Shouske
Сэмпл: http://multi-up.com/797417
Cубтитры: нет
Режиссер: Lee Jang Soo / Ли Чжан Су
В ролях: Lee Ji Ah - Wang So Jung / Ван Со Чжон (The Legend, Beethoven Virus, Style)
Kang Ji Hwan - Kang Tae Pung / Кан Тхэ Пхон (Coffee House, Hong Gil Dong, Capital Scandal, 90 Days, Falling in Love Days)
Lee Dong Hoon - Eun Soo
Hwang Jung Eum - Eun Bin
Описание:
Ван Со Чжон - добрая девушка, всегда готовая помочь друзьям и повеселить знакомых. Она работает репортером в журнале о животных, обожает зверушек, ведь они куда добрее людей. Главная печаль в жизни Ван Со Чжон - ее некрасивая внешность, порой вызывающая насмешки у окружающих людей.
Но однажды жизнь героини меняется кардинальным образом. Богатый, известный и красивый архитектор Кан Тхэ Пхон, встретив ее, сходит с ума от любви, бросая все к ее ногам, называя своей богиней. Девушка поначалу не верит своему счастью, но затем бросается с головой в омут любви.
Вот только через несколько дней сказка заканчивается: оказалось, виною увлечения Кан Тхэ Пхона были последствия аварии, вызвавшие нарушение восприятия. Богатый красавец видел в Ван Со Чжон ослепительную красотку, обычная ее внешность оттолкнула его.
Но любовь не обращает внимания на предпочтения и идеалы людей, входя в их жизнь без спроса. Что ей внешность людей, когда чувства уже соединили героев? Но смогут ли они последовать зову сердец и преодолеть предрассудки?
Доп. информация:
Релиз подготовлен группой GREEN TEA
Перевод Samjogo Subbing Squad
Работа над звуком Spellhowler
Оформление постера dusy78
Качество видео: TVRip
Формат видео: AVI
Видео: XviD, 640х352, 16:9, 23,976 кадра/сек, 1385 Кбит/сек
Аудио: MP3, 48,0 КГц, 192 Кбит/сек, 2 канала

MediaInfo

Общее
Полное имя : D:\Папка для записи\[GREEN TEA] Любовь слепа.avi
Формат : AVI
Формат/Информация : Audio Video Interleave
Размер файла : 1,11 Гбайт
Продолжительность : 1 ч. 40 м.
Общий поток : 1586 Кбит/сек
Программа кодирования : VirtualDubMod 1.5.10.2 (build 2540/release)
Библиотека кодирования : VirtualDubMod build 2540/release
Видео
Идентификатор : 0
Формат : MPEG-4 Visual
Профиль формата : Advanced Simple@L5
Параметр BVOP формата : 2
Параметр QPel формата : Нет
Параметр GMC формата : Без точки перехода
Параметр матрицы формата : Default (H.263)
Идентификатор кодека : XVID
Идентификатор кодека/Подсказка : XviD
Продолжительность : 1 ч. 40 м.
Битрейт : 1385 Кбит/сек
Ширина : 640 пикселей
Высота : 352 пикселя
Соотношение сторон : 16:9
Частота кадров : 23,976 кадра/сек
Цветовое пространство : YUV
Субдискретизация насыщенности : 4:2:0
Битовая глубина : 8 бит
Тип развёртки : Прогрессивная
Метод сжатия : С потерями
Бит/(Пиксели*Кадры) : 0.256
Размер потока : 993 Мбайт (87%)
Библиотека кодирования : XviD 1.2.1 (UTC 2008-12-04)
Аудио
Идентификатор : 1
Формат : MPEG Audio
Версия формата : Version 1
Профиль формата : Layer 3
Режим : Joint stereo
Идентификатор кодека : 55
Идентификатор кодека/Подсказка : MP3
Продолжительность : 1 ч. 40 м.
Вид битрейта : Постоянный
Битрейт : 192 Кбит/сек
Каналы : 2 канала
Частота : 48,0 КГц
Метод сжатия : С потерями
Размер потока : 138 Мбайт (12%)
Выравнивание : Соединение по промежуткам
Продолжительность промежутка : 42 мс. (1,00 видеокадр)
Время предзагрузки промежутка : 504 мс.

Скриншот c названием фильма

Скриншоты





[Профиль] [ЛС]

lenivaya10002

Стаж: 3 года 9 месяцев

Сообщений: 37

Пост 11-Мар-2013 00:12 (спустя 1 месяц 21 день)

[Цитировать]

Очень приятное и забавно-игривое кино. В первые пять минут просмотра, засек гг тян из "Я тоже цветочек", думал обознался. Посмотрел - правда она. А потом, как навалило, знакомых внешне актеров. :)












_________________
верхняя это обиженная нижняя у которой нет хозяина
[Профиль] [ЛС]

Рауа

Стаж: 2 года 9 месяцев

Сообщений: 1

Пост 16-Фев-2014 04:54 (спустя 11 месяцев 5 дней)

[Цитировать]

Хороший фильм. Смеялась как никогда!
[Профиль] [ЛС]

nnestor

Стаж: 2 года 10 месяцев

Сообщений: 116

Пост 26-Фев-2014 19:12 (спустя 10 дней)

[Цитировать]

не понимаю-как такую лапочку можно назвать некрасивой :)
в скриншотах на 6-ом главная героиня "Таинственного сада"?
[Профиль] [ЛС]
Показать сообщения:    
Ответить на тему

Текущее время: Сегодня 09:36

Часовой пояс: GMT



Вы не можете начинать темы
Вы не можете отвечать на сообщения
Вы не можете редактировать свои сообщения
Вы не можете удалять свои сообщения
Вы не можете голосовать в опросах
Вы не можете прикреплять файлы к сообщениям
Вы не можете скачивать файлы