Жалобы на работу трекера ! прошу сюда :)

Это Я. SMTOWN: Дни юности / I AM. SMTOWN The Days Of Youth (Choi Jin Sung) [2012, документальный, музыка, HDRip] [RAW] [720p] DVO GREEN TEA

Ответить на тему
 
Автор Сообщение

Klёпa ®

Стаж: 3 года 2 месяца

Сообщений: 906

Пост 20-Сен-2014 14:38

[Цитировать]

Это Я. SMTOWN: Дни юности
I AM. SMTOWN The Days Of Youth

Год выпуска: 2012
Страна: Южная Корея
Жанр: документальный, музыка
Продолжительность: 01:58:36-Перевод: Двухголосый(закадровый) Ульяна Громова и Франк Цветков
Сэмпл: https://yadi.sk/i/I-xuSsNiba9Ac-
Режиссер: Чхве Чжин Сон (Choi Jin Sung)
В ролях:
BoA
KANGTA
TVXQ! - Юноу Юнхо (U-Know Yunho/유노윤호), Макс Чханмин (Max Changmin/심창민)
Super Junior - Ынхёк (Eun Hyuk/은혁), Шивон (Choi Si Won/최시원), Шиндон (Shin Dong/신동), Итук (Lee Teuk/이특), Йесон (Yesung/김종운), Кюхен (Cho Kyu Hyun/조규현), Донхэ (Lee Dong Hae/이동해), Рёук (Kim Ryeo Wook/김려욱), Сонмин (Lee Seong Min/이성민)
SHINee - Чжонхён (Jong Hyun/김종현), Минхо (Choi Min Ho/최민호), Ки (Key/Kim Kibum/김기범), Тэмин (Lee Tae Min/이태민), Онью (Onew/온유)
Girls' Generation - Юри (Kwon Yu Ri/권유리), Тхэён (Kim Tae Yeon/김태연), Тиффани (Tiffany/티파니), Джессика (Jessica Jung/제시카 정), Юна (Im Yoon Ah/임윤아), Суён (Choi Soo Young/최수영), Сохён (Seo Joo Hyun/서주현), Санни (Lee Sun Gyu/이순규), ХёЁн (Kim Hyo Yeon/김효연)
F(x) - Эмбер (Amber/엠바), Солли (Sully/설리), Кристал (Krystal Jung/정수정), Луна (Luna), Виктория (Victoria Song/빅토리아)-Описание:
Фильм отражает прошлое, настоящее и будущее 32 корейских артистов. В него вошли закулисные съёмки во время репетиций, приоткрывающие их повседневную жизнь, а также интервью, видео-дневники и никогда ранее не показываемые архивное видео.-Доп. информация:
Релиз группы "GREEN TEA"
Перевод: фансаб-группа "BELOVED ONNiES"
▸ переводчики: kukushka92, Kim Ri A
▸ редакция: kukushka92
Оформление постера: MishaZ-Качество: HDRip
Формат: MKV
Видео кодек: AVC
Аудио кодек: MP3
Видео: 1280x720, 6340 Кбит/с, 23.976 fps
Аудио: 48 kHz, 256 Кбит/c, 2 канала
!!! Альтернативная раздача: 400p (AVI, XviD)

MediaInfo

Код:
General
Complete name                            : [GREEN TEA] I.AM.SMTOWN.The.Days.of.Youth_HD.mkv
Format                                   : Matroska
Format version                           : Version 2
File size                                : 5.46 GiB
Duration                                 : 1h 58mn
Overall bit rate                         : 6 593 Kbps
Encoded date                             : UTC 2014-08-09 14:37:52
Writing application                      : mkvmerge v6.7.0 ('Back to the Ground')
Writing library                          : libebml v1.3.0 + libmatroska v1.4.1
Video
ID                                       : 1
Format                                   : AVC
Format/Info                              : Advanced Video Codec
Format profile                           : High@L4.1
Format settings, CABAC                   : Yes
Format settings, ReFrames                : 9 frames
Codec ID                                 : V_MPEG4/ISO/AVC
Duration                                 : 1h 58mn
Bit rate                                 : 6 340 Kbps
Width                                    : 1 280 pixels
Height                                   : 720 pixels
Display aspect ratio                     : 16:9
Frame rate mode                          : Constant
Frame rate                               : 23.976 fps
Color space                              : YUV
Chroma subsampling                       : 4:2:0
Bit depth                                : 8 bits
Scan type                                : Progressive
Bits/(Pixel*Frame)                       : 0.287
Stream size                              : 5.14 GiB (94%)
Title                                    : Это Я. SMTOWN: Дни юности / I AM. SMTOWN. The Days of Youth (2012)
Writing library                          : x264 core 125 r2208 d9d2288
Encoding settings                        : cabac=1 / ref=9 / deblock=1:-3:-3 / analyse=0x3:0x113 / me=umh / subme=10 / psy=1 / psy_rd=1.10:0.10 / mixed_ref=1 / me_range=32 / chroma_me=1 / trellis=2 / 8x8dct=1 / cqm=0 / deadzone=21,11 / fast_pskip=0 / chroma_qp_offset=-2 / threads=12 / lookahead_threads=2 / sliced_threads=0 / nr=0 / decimate=1 / interlaced=0 / bluray_compat=0 / constrained_intra=0 / bframes=6 / b_pyramid=2 / b_adapt=2 / b_bias=0 / direct=3 / weightb=1 / open_gop=0 / weightp=2 / keyint=250 / keyint_min=23 / scenecut=40 / intra_refresh=0 / rc_lookahead=40 / rc=2pass / mbtree=0 / bitrate=6340 / ratetol=1.0 / qcomp=0.60 / qpmin=0 / qpmax=69 / qpstep=4 / cplxblur=20.0 / qblur=0.5 / vbv_maxrate=40000 / vbv_bufsize=30000 / nal_hrd=none / ip_ratio=1.40 / pb_ratio=1.30 / aq=1:0.90
Language                                 : Korean
Default                                  : Yes
Forced                                   : No
Audio
ID                                       : 2
Format                                   : MPEG Audio
Format version                           : Version 1
Format profile                           : Layer 3
Mode                                     : Joint stereo
Codec ID                                 : A_MPEG/L3
Codec ID/Hint                            : MP3
Duration                                 : 1h 58mn
Bit rate mode                            : Constant
Bit rate                                 : 256 Kbps
Channel(s)                               : 2 channels
Sampling rate                            : 48.0 KHz
Compression mode                         : Lossy
Stream size                              : 217 MiB (4%)
Title                                    : GREEN TEA DVO (Ульяна Громова и Франк Цветков)
Language                                 : Russian
Default                                  : Yes
Forced                                   : No

Скриншоты


[Профиль] [ЛС]

PhoenixYuong

Стаж: 3 года 9 месяцев

Сообщений: 320

Откуда: Беларусь

Пост 20-Сен-2014 16:50 (спустя 2 часа 11 минут)

[Цитировать]

А я вот... плакала в конце, когда рассказывали про проданные билеты! Вот слезы сами взяли и полились!!!!))))) Я таак гордилась ими, как никогда не гордилась своими!
Это невероятный фильм! Спасибо Вам огромное!!!!!!

_________________
[Профиль] [ЛС]

MariLand

Стаж: 3 года 10 месяцев

Сообщений: 235

Пост 20-Сен-2014 20:01 (спустя 3 часа)

[Цитировать]

спасибо за восстановление раздачи!
[Профиль] [ЛС]

Яна0402

Стаж: 2 года

Сообщений: 1

Пост 23-Ноя-2014 10:25 (спустя 2 месяца 2 дня)

[Цитировать]

Вот буду смотреть)Думаю понравится))
[Профиль] [ЛС]
Показать сообщения:    
Ответить на тему

Текущее время: Сегодня 05:48

Часовой пояс: GMT



Вы не можете начинать темы
Вы не можете отвечать на сообщения
Вы не можете редактировать свои сообщения
Вы не можете удалять свои сообщения
Вы не можете голосовать в опросах
Вы не можете прикреплять файлы к сообщениям
Вы не можете скачивать файлы