Жалобы на работу трекера ! прошу сюда :)

Это Я. SMTOWN: Дни юности / I AM. SMTOWN The Days Of Youth (Choi Jin Sung) [2012, документальный, музыка, HDRip] [RAW] [400p] DVO GREEN TEA

Ответить на тему
 
Автор Сообщение

Klёпa ®

Стаж: 3 года 2 месяца

Сообщений: 906

Пост 20-Сен-2014 14:44

[Цитировать]

Это Я. SMTOWN: Дни юности
I AM. SMTOWN The Days Of Youth

Год выпуска: 2012
Страна: Южная Корея
Жанр: документальный, музыка
Продолжительность: 01:58:36-Перевод: Двухголосый(закадровый) Ульяна Громова и Франк Цветков
Сэмпл: https://yadi.sk/i/LguI602oba7uX-
Режиссер: Чхве Чжин Сон (Choi Jin Sung)
В ролях:
BoA
KANGTA
TVXQ! - Юноу Юнхо (U-Know Yunho/유노윤호), Макс Чханмин (Max Changmin/심창민)
Super Junior - Ынхёк (Eun Hyuk/은혁), Шивон (Choi Si Won/최시원), Шиндон (Shin Dong/신동), Итук (Lee Teuk/이특), Йесон (Yesung/김종운), Кюхен (Cho Kyu Hyun/조규현), Донхэ (Lee Dong Hae/이동해), Рёук (Kim Ryeo Wook/김려욱), Сонмин (Lee Seong Min/이성민)
SHINee - Чжонхён (Jong Hyun/김종현), Минхо (Choi Min Ho/최민호), Ки (Key/Kim Kibum/김기범), Тэмин (Lee Tae Min/이태민), Онью (Onew/온유)
Girls' Generation - Юри (Kwon Yu Ri/권유리), Тхэён (Kim Tae Yeon/김태연), Тиффани (Tiffany/티파니), Джессика (Jessica Jung/제시카 정), Юна (Im Yoon Ah/임윤아), Суён (Choi Soo Young/최수영), Сохён (Seo Joo Hyun/서주현), Санни (Lee Sun Gyu/이순규), ХёЁн (Kim Hyo Yeon/김효연)
F(x) - Эмбер (Amber/엠바), Солли (Sully/설리), Кристал (Krystal Jung/정수정), Луна (Luna), Виктория (Victoria Song/빅토리아)-Описание:
Фильм отражает прошлое, настоящее и будущее 32 корейских артистов. В него вошли закулисные съёмки во время репетиций, приоткрывающие их повседневную жизнь, а также интервью, видео-дневники и никогда ранее не показываемое архивное видео.-Доп. информация:
Релиз группы "GREEN TEA"
Перевод: фансаб-группа "BELOVED ONNiES"
▸ переводчики: kukushka92, Kim Ri A
▸ редакция: kukushka92
Оформление постера: MishaZ-Качество: HDRip
Формат: AVI
Видео кодек: XviD
Аудио кодек: MP3
Видео: 720x400, 1498 Кбит/с, 23.976 fps
Аудио: 48 kHz, 256 Кбит/c, 2 канала
!!! Альтернативная раздача: 720p (AVI, XviD)

MediaInfo

Код:
General
Complete name                            : [GREEN TEA] I.AM.SMTOWN.The.Days.of.Youth (400p).avi
Format                                   : AVI
Format/Info                              : Audio Video Interleave
File size                                : 1.46 GiB
Duration                                 : 1h 58mn
Overall bit rate                         : 1 763 Kbps
Writing application                      : VirtualDubMod 1.5.10.3 | (build 2550/release)
Writing library                          : VirtualDubMod build 2550/release
Video
ID                                       : 0
Format                                   : MPEG-4 Visual
Format profile                           : Advanced Simple@L5
Format settings, BVOP                    : 2
Format settings, QPel                    : No
Format settings, GMC                     : No warppoints
Format settings, Matrix                  : Default (MPEG)
Codec ID                                 : XVID
Codec ID/Hint                            : XviD
Duration                                 : 1h 58mn
Bit rate                                 : 1 498 Kbps
Width                                    : 720 pixels
Height                                   : 400 pixels
Display aspect ratio                     : 16:9
Frame rate                               : 23.976 fps
Color space                              : YUV
Chroma subsampling                       : 4:2:0
Bit depth                                : 8 bits
Scan type                                : Progressive
Compression mode                         : Lossy
Bits/(Pixel*Frame)                       : 0.217
Stream size                              : 1.24 GiB (85%)
Writing library                          : XviD 1.2.1 (UTC 2008-12-04)
Audio
ID                                       : 1
Format                                   : MPEG Audio
Format version                           : Version 1
Format profile                           : Layer 3
Codec ID                                 : 55
Codec ID/Hint                            : MP3
Duration                                 : 1h 58mn
Bit rate mode                            : Constant
Bit rate                                 : 256 Kbps
Channel(s)                               : 2 channels
Sampling rate                            : 48.0 KHz
Compression mode                         : Lossy
Stream size                              : 217 MiB (15%)
Alignment                                : Aligned on interleaves
Interleave, duration                     : 42 ms (1.00 video frame)
Interleave, preload duration             : 504 ms
Writing library                          : LAME3.99r
Encoding settings                        : -m s -V 4 -q 0 -lowpass 19.7
[Профиль] [ЛС]
Показать сообщения:    
Ответить на тему

Текущее время: Сегодня 18:28

Часовой пояс: GMT



Вы не можете начинать темы
Вы не можете отвечать на сообщения
Вы не можете редактировать свои сообщения
Вы не можете удалять свои сообщения
Вы не можете голосовать в опросах
Вы не можете прикреплять файлы к сообщениям
Вы не можете скачивать файлы