Жалобы на работу трекера ! прошу сюда :)

Сексуальная учительница / Кто спал с ней? / Who Slept With Her? (Kim Yu Seong) [2006, комедия, DVDRip] [RAW] [340p] VO GREEN TEA

Ответить на тему
 
Автор Сообщение

Klёпa ®

Стаж: 3 года 2 месяца

Сообщений: 906

Пост 21-Окт-2014 22:37

[Цитировать]

Сексуальная учительница (Кто спал с ней?)
Who Slept With Her? / Nuga geunyeo-wa jasseulkka?


Год выпуска: 2006
Страна: Южная Корея
Жанр: комедия
Продолжительность: 01:45:00-Перевод: одноголосый (закадровый) mi24
Сэмпл:-
Режиссер: Ким Ю Сон (Kim Yu Seong)
В ролях:
Ким Са Ран (Kim Sa Rang) - Йо Ян Ум
Ха Сок Джин (Ha Seok Jin) - Тае Йо
Пак Чжун Гю (Park Jun Gyu) - Йае Сон
Ха Дон Хон (Ha Dong Hun) - Майон Саб
Ли Хёк Дже (Lee Hyeok Jae)
Пак Чоль Мин (Park Cheol Min)
Ю Чхе Ён (Yu Chae Young)
и др.-Описание:
Moлoдaя, кpacивaя и coблaзнитeльнaя Йo-Ян пpиxoдит в шкoлy для мaльчикoв в кaчecтвe yчитeльницы-пpaктикaнтки. Eй дaют зaдaниe пoдгoтoвить выcтyплeниe нa цepкoвный фecтивaль, кoтopый пpoвoдитcя в шкoлe кaждый гoд. Oнa нaчинaeт тpeниpoвки c тpeмя cвoими пoдoпeчными, a вcя шкoлa дeлaeт cтaвки, ктo жe cмoжeт зaтaщить кpacoткy в пocтeль. 3a пpoиcxoдящим тщaтeльнo нaблюдaeт зaвeдyющий пo диcциплинe, гoтoвый в любoй мoмeнт вывecти нoвyю yчитeльницy нa чиcтyю вoдy и выдвopить paзвpaтницy из шкoлы.-Доп. информация:
Релиз подготовлен группой "GREEN TEA"
Перевод субтитров: Zorkzero
Перевод/редакция субтитров: Eleanor-Качество: DVDRip
Формат: AVI
Видео кодек: XviD
Аудио кодек: MP3
Видео: 800x336 (16:9), 2645 Kbps, 25.00 fps
Аудио: MP3, 44.1 kHz, 128 kbps

MediaInfo

Код:
General
Format                                   : AVI
Format/Info                              : Audio Video Interleave
Format profile                           : OpenDML
File size                                : 2.05 GiB
Duration                                 : 1h 45mn
Overall bit rate                         : 2 786 Kbps
Writing application                      : VirtualDubMod 1.5.10.2 (build 2542/release)
Writing library                          : VirtualDubMod build 2542/release
Video
ID                                       : 0
Format                                   : MPEG-4 Visual
Format profile                           : Advanced Simple@L5
Format settings, BVOP                    : 3
Format settings, QPel                    : No
Format settings, GMC                     : No warppoints
Format settings, Matrix                  : Default (H.263)
Codec ID                                 : XVID
Codec ID/Hint                            : XviD
Duration                                 : 1h 45mn
Bit rate                                 : 2 645 Kbps
Width                                    : 800 pixels
Height                                   : 336 pixels
Display aspect ratio                     : 2.40:1
Frame rate                               : 25.000 fps
Original frame rate                      : 23.976 fps
Color space                              : YUV
Chroma subsampling                       : 4:2:0
Bit depth                                : 8 bits
Scan type                                : Progressive
Compression mode                         : Lossy
Bits/(Pixel*Frame)                       : 0.394
Stream size                              : 1.95 GiB (95%)
Writing library                          : XviD 1.1.2 (UTC 2006-11-01)
Audio
ID                                       : 1
Format                                   : MPEG Audio
Format version                           : Version 1
Format profile                           : Layer 3
Codec ID                                 : 55
Codec ID/Hint                            : MP3
Duration                                 : 1h 45mn
Bit rate mode                            : Constant
Bit rate                                 : 128 Kbps
Channel(s)                               : 2 channels
Sampling rate                            : 44.1 KHz
Compression mode                         : Lossy
Delay relative to video                  : 3ms
Stream size                              : 96.5 MiB (5%)
Alignment                                : Split accross interleaves
Interleave, duration                     : 40 ms (1.00 video frame)
Interleave, preload duration             : 500 ms
Title                                    : GREEN TEA VO

Скриншоты

[Профиль] [ЛС]
Показать сообщения:    
Ответить на тему

Текущее время: Сегодня 22:06

Часовой пояс: GMT



Вы не можете начинать темы
Вы не можете отвечать на сообщения
Вы не можете редактировать свои сообщения
Вы не можете удалять свои сообщения
Вы не можете голосовать в опросах
Вы не можете прикреплять файлы к сообщениям
Вы не можете скачивать файлы