Жалобы на работу трекера ! прошу сюда :)

Ледяной дождь / Две женщины / Love, In Between / Two Women (Чон Юн-Су / Yun-su Jeon) [2010 г., драма, эротика, TVRip] [304p] MVO GREEN TEA & TF-AniGroup

Ответить на тему
 
Автор Сообщение

dusy78 ®

Стаж: 3 года 10 месяцев

Сообщений: 1005

Откуда: Россия

Пост 22-Окт-2014 13:23

[Цитировать]

Ледяной дождь / Две женщины
Love, In Between / Two Women

Год выпуска: 2010
Страна: Южная Корея
Жанр: драма, эротика
Продолжительность: 01:44:00
Озвучивание: pandora2177, Emeri, loster01
Семпл: https://yadi.sk/i/Eo5g6r5CcDBQC
Режиссер: Чон Юн-Су / Yun-su Jeon
В ролях: Sin Eun-kyeong,
Jeong Joon-ho,
Sim I-yeong,
Choi Jae-won,
Lee Seon-jin,
Kwon Seong-min
Описание: Действие фильма "Love, In Between" сосредотачивается вокруг женщины, которая обнаруживает, что ее муж имеет связь на стороне. До этого пара была почти идеальной, и фильм отражает проблему выбора, что же можно сделать в такой ситуации...
Профессор университета Джи-Юн Сок (Jeong Jun-Ho) любит свою жену, но и не может отказаться от своей новой любви. Так Янг (Шин Юн-Kyung) обнаруживает, что муж изменяет ей со студенткой по имени Су-Джи (Shim Ли Ен). Когда она встречает Су-Джи, она испытывает различные эмоции от желания мести до ...
Доп. информация:
Перевод: KingFisheR22
Релиз: группы GREEN TEA & TF-AniGroup
Работа со звуком: pandora2177
Оформление постера: aleksey.THE
Качество: TVRip
Формат: AVI
Видео кодек: XviD
Аудио кодек: AC3
Видео: 720х304, 1 411 Kbps, 23.976 fps
Аудио: 192 Кбит/с, 48.0 КHz, 2 канала
ФИЛЬМ ПРЕДНАЗНАЧЕН ДЛЯ ЛИЦ СТАРШЕ 18+

Скриншоты

MediaInfo

General
Complete name : F:\Фильмы\[GREEN TEA & TF-AniGroup] Love, In Between.avi
Format : AVI
Format/Info : Audio Video Interleave
File size : 1.18 GiB
Duration : 1h 44mn
Overall bit rate : 1 613 Kbps
Writing application : VirtualDubMod 1.5.10.2 (build 2540/release)
Writing library : VirtualDubMod build 2540/release
Video
ID : 0
Format : MPEG-4 Visual
Format profile : Advanced Simple@L5
Format settings, BVOP : 2
Format settings, QPel : No
Format settings, GMC : No warppoints
Format settings, Matrix : Default (H.263)
Muxing mode : Packed bitstream
Codec ID : XVID
Codec ID/Hint : XviD
Duration : 1h 44mn
Bit rate : 1 411 Kbps
Width : 720 pixels
Height : 304 pixels
Display aspect ratio : 2.35:1
Frame rate : 23.976 fps
Color space : YUV
Chroma subsampling : 4:2:0
Bit depth : 8 bits
Scan type : Progressive
Compression mode : Lossy
Bits/(Pixel*Frame) : 0.269
Stream size : 1.03 GiB (88%)
Writing library : XviD 1.1.2 (UTC 2006-11-01)
Audio
ID : 1
Format : AC-3
Format/Info : Audio Coding 3
Mode extension : CM (complete main)
Format settings, Endianness : Big
Codec ID : 2000
Duration : 1h 44mn
Bit rate mode : Constant
Bit rate : 192 Kbps
Channel(s) : 2 channels
Channel positions : Front: L R
Sampling rate : 48.0 KHz
Bit depth : 16 bits
Compression mode : Lossy
Stream size : 144 MiB (12%)
Alignment : Split accross interleaves
Interleave, duration : 42 ms (1.00 video frame)
Interleave, preload duration : 500 ms
[Профиль] [ЛС]

Ная

Стаж: 2 года 7 месяцев

Сообщений: 206

Откуда: Россия

Пост 23-Окт-2014 08:43 (спустя 19 часов)

[Цитировать]

Но, "Ледяной дождь" - это, вроде как, другой фильм) 2004 года. Там речь идёт о двух мужчинах, а не о двух женщинах. Совсем другой треугольник :-)
[Профиль] [ЛС]
Показать сообщения:    
Ответить на тему

Текущее время: Сегодня 20:40

Часовой пояс: GMT



Вы не можете начинать темы
Вы не можете отвечать на сообщения
Вы не можете редактировать свои сообщения
Вы не можете удалять свои сообщения
Вы не можете голосовать в опросах
Вы не можете прикреплять файлы к сообщениям
Вы не можете скачивать файлы