Жалобы на работу трекера ! прошу сюда :)

Лучшие друзья / Good Friends / Confession / Joeun Chingoodeul (Ли До Юн) [2014, криминал, драма, HDRip] [RAW] [720p] DVO GREEN TEA

Ответить на тему
 
Автор Сообщение

Klёпa ®

Стаж: 3 года 2 месяца

Сообщений: 906

Пост 10-Ноя-2014 18:17

[Цитировать]

Лучшие друзья (Признание)
Good Friends (Confession) / Joeun Chingoodeul

Год выпуска: 2014
Страна: Южная Корея
Жанр: криминал, драма
Продолжительность: 01:54:00-Перевод двухголосый (закадровый): Дмитрий Познанский и Айя Сона
Сэмпл: https://yadi.sk/-
Режиссер: Ли До Юн (Lee Do Yoon / 이도윤)
В ролях:
Чжи Сон (Ji Sung / 지성) - Хён Тэ
Чжу Чжи Хун (Joo Ji Hoon / 주지훈) - Ин Чхоль
Ли Кван Су (Lee Kwang Soo / 이광수) - Мин Су
и др.-Описание:
Хён Тэ, Ин Чхоль и Мин Су лучшие друзья со школы и считают себя семьей. Хён Тэ работает пожарником и воспитывает маленькую дочь. Ин Чхоль — работает в страховой компании и известен как страховой агент, готовый пойти на любое мошенничество со страховыми выплатами. Мин Су работает в сфере малого бизнеса. Однажды, мать Хён Тэ попросила устроить Ин Чхоля аферу со страховкой принадлежавшего ей небольшого салона с игровыми автоматами. Парни согласились, но это привело к трагедии, которая разрушила их жизни…-Доп. информация:
Релиз подготовлен группой "GREEN TEA"
Перевод: Наталия Чен
Работа со звуком: Ольга Гринтиева-Качество: HDRip
Формат: AVI
Видео кодек: xvid
Аудио кодек: MP3
Видео: 1280x720, 2198 Кбит/с, 23.976 fps
Аудио: 48 kHz, 192 Кбит/c, 2 канала

MediaInfo

Код:
General
Format                                   : AVI
Format/Info                              : Audio Video Interleave
File size                                : 1.92 GiB
Duration                                 : 1h 54mn
Overall bit rate                         : 2 399 Kbps
Writing application                      : VirtualDubMod 1.5.10.2 (build 2540/release)
Writing library                          : VirtualDubMod build 2540/release
Video
ID                                       : 0
Format                                   : xvid
Codec ID                                 : xvid
Duration                                 : 1h 54mn
Bit rate                                 : 2 198 Kbps
Width                                    : 1 280 pixels
Height                                   : 720 pixels
Display aspect ratio                     : 16:9
Frame rate                               : 23.976 fps
Bits/(Pixel*Frame)                       : 0.099
Stream size                              : 1.76 GiB (92%)
Audio
ID                                       : 1
Format                                   : MPEG Audio
Format version                           : Version 1
Format profile                           : Layer 3
Mode                                     : Joint stereo
Codec ID                                 : 55
Codec ID/Hint                            : MP3
Duration                                 : 1h 54mn
Bit rate mode                            : Constant
Bit rate                                 : 192 Kbps
Channel count                            : 2 channels
Sampling rate                            : 48.0 KHz
Compression mode                         : Lossy
Stream size                              : 157 MiB (8%)
Alignment                                : Aligned on interleaves
Interleave, duration                     : 42 ms (1.00 video frame)
Interleave, preload duration             : 504 ms

Скриншоты




Последний раз редактировалось: Klёпa (2015-01-09 03:35), всего редактировалось 1 раз
[Профиль] [ЛС]

rodqer

Стаж: 3 года 10 месяцев

Сообщений: 417

Откуда: кемерово

Пост 11-Ноя-2014 02:45 (спустя 8 часов)

[Цитировать]

спасибо большое так ждала этот фильм , ми ми ми с удовольствием посмотрю
[Профиль] [ЛС]

rodqer

Стаж: 3 года 10 месяцев

Сообщений: 417

Откуда: кемерово

Пост 12-Ноя-2014 05:36 (спустя 1 день 2 часа)

[Цитировать]

в станте пожалуйста кто нибудь на раздачу, со вчерашнего дня качаю до сих пор качаеться
[Профиль] [ЛС]

Тайли МО

Стаж: 2 года

Сообщений: 1

Пост 12-Ноя-2014 08:10 (спустя 2 часа 34 минуты)

[Цитировать]

пожарник поджигает, а пожарный тушит
[Профиль] [ЛС]

ОльгаС

Стаж: 2 года 7 месяцев

Сообщений: 43

Пост 13-Ноя-2014 20:06 (спустя 1 день 11 часов)

[Цитировать]

пожарник поджигает, а пожарный тушит
Я в офигении.
Всю жизнь думала, что это слова-синонимы (если , разумеется, слово "пожарный". использовано в качестве существительного).
[Профиль] [ЛС]

тао

Стаж: 2 года

Сообщений: 1

Пост 19-Ноя-2014 07:59 (спустя 5 дней)

[Цитировать]

как скачать подскажите
[Профиль] [ЛС]

Klёпa ®

Стаж: 3 года 2 месяца

Сообщений: 906

Пост 19-Ноя-2014 08:30 (спустя 31 минута)

[Цитировать]

тао, http://tracker.green-tea.tv/viewtopic.php?t=72
[Профиль] [ЛС]

ОльгаС

Стаж: 2 года 7 месяцев

Сообщений: 43

Пост 08-Янв-2015 19:47 (спустя 1 месяц 19 дней)

[Цитировать]

Снято хорошо, сыграно хорошо, любимые актеры, но история тяжелая, у меня фильм с трудом шёл.
[Профиль] [ЛС]
Показать сообщения:    
Ответить на тему

Текущее время: Сегодня 20:39

Часовой пояс: GMT



Вы не можете начинать темы
Вы не можете отвечать на сообщения
Вы не можете редактировать свои сообщения
Вы не можете удалять свои сообщения
Вы не можете голосовать в опросах
Вы не можете прикреплять файлы к сообщениям
Вы не можете скачивать файлы