Жалобы на работу трекера ! прошу сюда :)

Полицейский на подиуме / Детектив Ча: миссия «Подиум» / Runway Cop (Шин Тэ-Ра / Shin Tae-Ra) [2012, Южная Корея, комедия, HDRip] DVO GREEN TEA&AniPower

Ответить на тему
 
Автор Сообщение

pandora2177 ®

Стаж: 3 года 10 месяцев

Сообщений: 368

Пост 21-Янв-2013 13:02

[Цитировать]

ПОЛИЦЕЙСКИЙ НА ПОДИУМЕ
Детектив Ча: миссия «Подиум» / Runway Cop
Страна: Южная Корея
Жанр: комедия
Год выпуска: 2012
Продолжительность: 01:50:35
-
Перевод: двухголосый закадровый pandora2177, loster01
Сэмпл: http://multi-up.com/754320
-
Cубтитры: нет
Режиссер: Шин Тэ-Ра / Shin Tae-Ra
В ролях:
Кан Чжи Хван - детектив Ча Чул-Су
Сон Ю Ри - модельер Юн Джэ
Ли Су Хёк - топ модель Ким Сун Хо
Ким Ён Хван - Хан Сын У
-
Описание: Детектив Ча удивляет всех своим вешним видом, он больше похож на нищего, чем на полицейского. Но, несмотря на все это, он очень преданный своему делу коп. И когда ему, чтобы поймать "плохих парней", придется работать под прикрытием в качестве модели, ходить по подиуму, то он готов ради дела сбросить за 2 недели 20 килограммов.
-
Доп. информация:
Перевод: elzanorge
Оформление постера: pandora2177
Тайминг: RiN
Релиз: совместный релиз групп "GREEN TEA" и "ANIPOWER"
-
Качество видео: HDRip
Формат видео: AVI
Видео: XviD, 720x304 (2.37:1), 25 fps, 1656 kbps avg, 0.30 bit/pixel
Аудио: Русский, 48 KHz, MPEG Layer 3, 2 ch, 192.00 kbps
!!! Альтернативная раздача 1280x544

MediaInfo

Формат : AVI
Формат/Информация : Audio Video Interleave
Размер файла : 1,44 Гбайт
Продолжительность : 1 ч. 50 м.
Общий поток : 1858 Кбит/сек
Программа кодирования : VirtualDubMod 1.5.10.2 (build 2540/release)
Библиотека кодирования : VirtualDub build 32842/release
Видео
Идентификатор : 0
Формат : MPEG-4 Visual
Профиль формата : Advanced Simple@L5
Параметр BVOP формата : Нет
Параметр QPel формата : Нет
Параметр GMC формата : Без точки перехода
Параметр матрицы формата : Выборочная
Идентификатор кодека : XVID
Идентификатор кодека/Подсказка : XviD
Продолжительность : 1 ч. 50 м.
Битрейт : 1656 Кбит/сек
Ширина : 720 пикселей
Высота : 304 пикселя
Соотношение сторон : 2,35:1
Частота кадров : 25,000 кадров/сек
Цветовое пространство : YUV
Субдискретизация насыщенности : 4:2:0
Битовая глубина : 8 бит
Тип развёртки : Прогрессивная
Метод сжатия : С потерями
Бит/(Пиксели*Кадры) : 0.303
Размер потока : 1,28 Гбайт (89%)
Библиотека кодирования : XviD 1.0.2 (UTC 2004-08-29)
Аудио
Идентификатор : 1
Формат : MPEG Audio
Версия формата : Version 1
Профиль формата : Layer 3
Режим : Joint stereo
Идентификатор кодека : 55
Идентификатор кодека/Подсказка : MP3
Продолжительность : 1 ч. 50 м.
Вид битрейта : Постоянный
Битрейт : 192 Кбит/сек
Каналы : 2 канала
Частота : 48,0 КГц
Метод сжатия : С потерями
Размер потока : 152 Мбайт (10%)
Выравнивание : Разделение по промежуткам
Продолжительность промежутка : 40 мс. (1,00 видеокадр)
Время предзагрузки промежутка : 500 мс.

Скриншот c названием фильма

Скриншоты









Последний раз редактировалось: pandora2177 (2013-01-23 07:00), всего редактировалось 1 раз
[Профиль] [ЛС]

Stacey-Susy

Стаж: 3 года 10 месяцев

Сообщений: 51

Пост 22-Янв-2013 12:26 (спустя 23 часа)

[Цитировать]

Вот где от души посмеялись с друзями! Море позитива и неконтролируемого смеха!
[Профиль] [ЛС]

elzanorge

Стаж: 3 года 10 месяцев

Сообщений: 22

Пост 23-Янв-2013 19:06 (спустя 1 день 6 часов)

[Цитировать]

Смешной фильм) Я пока переводила хохотала)
[Профиль] [ЛС]

EL_1991

Стаж: 3 года 10 месяцев

Сообщений: 36

Пост 08-Фев-2013 09:43 (спустя 15 дней)

[Цитировать]

Очень классный фильм,скачивала еще с рутрекера,становлюсь теперь на раздачу тут!Спасибо за озвучку и массу позитива!
[Профиль] [ЛС]

Фуккацуми

Стаж: 3 года

Сообщений: 12

Пост 07-Ноя-2013 10:57 (спустя 8 месяцев 27 дней)

[Цитировать]

Это один из моих любимейших фильмов!!! Сюжет и актеры просто супер!) В общем, фильм шедевр)))
[Профиль] [ЛС]

Lisas

Стаж: 2 года 11 месяцев

Сообщений: 6

Пост 09-Дек-2013 13:49 (спустя 1 месяц 2 дня)

[Цитировать]

Красивая и веселая комедия! Готова пересмотреть в ближайшее время)))
[Профиль] [ЛС]

VDN333

Стаж: 3 года 1 месяц

Сообщений: 15

Пост 19-Янв-2014 19:32 (спустя 1 месяц 10 дней)

[Цитировать]

Очень позитивный и смешной... Я смеялась до слёз.....

_________________
VDN333
[Профиль] [ЛС]

sonti

Стаж: 2 года 10 месяцев

Сообщений: 1

Пост 23-Янв-2014 08:56 (спустя 3 дня)

[Цитировать]

как можно скачать фильмы
[Профиль] [ЛС]

pandora2177 ®

Стаж: 3 года 10 месяцев

Сообщений: 368

Пост 28-Янв-2014 05:04 (спустя 4 дня)

[Цитировать]

sonti, нажмите скачать. И через эту программу http://www.utorrent.com/ скачайте файл.
[Профиль] [ЛС]

eon

Стаж: 2 года 11 месяцев

Сообщений: 9

Пост 08-Фев-2014 16:36 (спустя 11 дней)

[Цитировать]

Отличная комедия, озвучка актеров третьего плана супер.)
[Профиль] [ЛС]

Кадеточка

Стаж: 1 год 3 месяца

Сообщений: 12

Пост 28-Авг-2015 13:46 (спустя 1 год 6 месяцев)

[Цитировать]

Ну вот и до фильмов добралась я...
Качаю из-за "Чумы" из Рождества и замираю в предвкушении моря позитива!!! bp bp bp
Спасибо за раздачу в миллионный раз! ax
[Профиль] [ЛС]

vetluga

Стаж: 1 год 9 месяцев

Сообщений: 3

Пост 10-Янв-2016 18:08 (спустя 4 месяца 13 дней)

[Цитировать]

Когда выложите фильм в качестве 720р и 1080р?
[Профиль] [ЛС]

Doberman

Стаж: 10 месяцев

Сообщений: 1

Пост 08-Фев-2016 11:13 (спустя 28 дней)

[Цитировать]

Смешная комедия! Спасибо за классную озвучку Грин Теа, женский, милый голосок просто сказочный, идеально подходит!
[Профиль] [ЛС]
Показать сообщения:    
Ответить на тему

Текущее время: Сегодня 22:22

Часовой пояс: GMT



Вы не можете начинать темы
Вы не можете отвечать на сообщения
Вы не можете редактировать свои сообщения
Вы не можете удалять свои сообщения
Вы не можете голосовать в опросах
Вы не можете прикреплять файлы к сообщениям
Вы не можете скачивать файлы