Жалобы на работу трекера ! прошу сюда :)

Сумасшествие ожидания / The Longest 24 Months / Crazy waiting (Ryoo Seung-jin (Рю Сын Чжин)) [2007 г., Мелодрама, романтическая комедия, TVRip] DVO [GREEN TEA]

Ответить на тему
 
Автор Сообщение

dusy78 ®

Стаж: 3 года 10 месяцев

Сообщений: 1005

Откуда: Россия

Пост 13-Ноя-2014 13:03

[Цитировать]

Сумасшествие ожидания
The Longest 24 Months / Crazy waiting

Год выпуска: 2007
Страна: Южная Корея
Жанр: Мелодрама, романтическая комедия
Продолжительность: 108 мин.
Озвучивание: Людмила Линькова и Макс Коллапс
СЕМПЛ: http://f-bit.ru/538917
Режиссер: Ryoo Seung-jin (Рю Сын Чжин)
В ролях:
Son Tae-yeong,
Jang Geun-seok (Малыш и я, До ре ми фа соль ля си до),
Jang Hee-jin,
Danny Ahn,
Yoo In-yeong,
Kim San-ho,
Han Yeo-reum (Натянутая тетива),
Woo Seung-mi,
Seo Min-woo
Описание: 4 пары расстаются на два года - парни идут в армию. Девушки, захлёбываясь слезами, обещают их дождаться. Но настолько ли сильна их любовь, как кажется?! Пока их парни служат ратному делу, одна переспала с его лучшим другом, другая и вовсе привела в их дом нового парня, третья не знает, чего хочет, четвёртая лелеет любовь к парню из своей рок-группы, который и ушёл в армию, и теперь не знает, как ему признаться. Оказывается, за два года многое может измениться, или наоборот - окрепнуть.
Доп. информация:
Релиз: группа "GREEN TEA"
Перевод: Narцissa
Тайминг: Разифат Асланова
Работа со звуком: Людмила Линькова
Оформление постера: Дина Фаткуллина
Качество: TVRip
Формат: AVI
Видео кодек: XviD
Аудио кодек: MP3
Видео: 1 338 Kbps, 640х272, 23.976 fps
Аудио: MP3, 48.0 KHz, 128 kbps, 2 ch

Скриншоты

MediaInfo

General
Complete name : F:\Фильмы\[GREEN TEA] Сумашествие ожидания.avi
Format : AVI
Format/Info : Audio Video Interleave
File size : 1.13 GiB
Duration : 1h 49mn
Overall bit rate : 1 475 Kbps
Writing application : VirtualDubMod 1.5.10.2 (build 2542/release)
Writing library : VirtualDubMod build 2542/release
Video
ID : 0
Format : MPEG-4 Visual
Format profile : Advanced Simple@L5
Format settings, BVOP : 2
Format settings, QPel : No
Format settings, GMC : No warppoints
Format settings, Matrix : Default (H.263)
Codec ID : XVID
Codec ID/Hint : XviD
Duration : 1h 49mn
Bit rate : 1 338 Kbps
Width : 640 pixels
Height : 272 pixels
Display aspect ratio : 2.35:1
Frame rate : 23.976 fps
Color space : YUV
Chroma subsampling : 4:2:0
Bit depth : 8 bits
Scan type : Progressive
Compression mode : Lossy
Bits/(Pixel*Frame) : 0.321
Stream size : 1.02 GiB (91%)
Writing library : XviD 1.0.3 (UTC 2004-12-20)
Audio
ID : 1
Format : MPEG Audio
Format version : Version 1
Format profile : Layer 3
Mode : Joint stereo
Mode extension : MS Stereo
Codec ID : 55
Codec ID/Hint : MP3
Duration : 1h 49mn
Bit rate mode : Constant
Bit rate : 128 Kbps
Channel(s) : 2 channels
Sampling rate : 48.0 KHz
Compression mode : Lossy
Stream size : 99.9 MiB (9%)
Alignment : Aligned on interleaves
Interleave, duration : 42 ms (1.00 video frame)
Interleave, preload duration : 504 ms
[Профиль] [ЛС]

Ланочка10_83

Стаж: 3 года 1 месяц

Сообщений: 131

Пост 14-Ноя-2014 03:14 (спустя 14 часов)

[Цитировать]

Спасибочки Вам!!! :) aa
[Профиль] [ЛС]

nnestor

Стаж: 2 года 11 месяцев

Сообщений: 116

Пост 18-Ноя-2014 20:12 (спустя 4 дня)

[Цитировать]

HD будет?
[Профиль] [ЛС]
Показать сообщения:    
Ответить на тему

Текущее время: Сегодня 05:45

Часовой пояс: GMT



Вы не можете начинать темы
Вы не можете отвечать на сообщения
Вы не можете редактировать свои сообщения
Вы не можете удалять свои сообщения
Вы не можете голосовать в опросах
Вы не можете прикреплять файлы к сообщениям
Вы не можете скачивать файлы