Жалобы на работу трекера ! прошу сюда :)

Танцующая королева / Королева танца / Dancing Queen (Ли Сок Хун / Lee Seok-hoon) [2012, Южная Корея, Комедия, романтика, мелодрама, HDTVRip] [720] DVO GREEN TEA

Ответить на тему
 
Автор Сообщение

dusy78 ®

Стаж: 3 года 10 месяцев

Сообщений: 1005

Откуда: Россия

Пост 28-Ноя-2014 19:11

[Цитировать]

Танцующая королева
Королева танца / Dancing Queen

-
Страна: Южная Корея
Жанр: Комедия, романтика, мелодрама
Год выпуска: 2012
Продолжительность: 02:04:00
Озвучивание: mi24, pandora2177
СЕМПЛ: https://yadi.sk/i/j-0RHxkzd23L7
-
Cубтитры: нет
Режиссер: Ли Сок Хун / Lee Seok-hoon (이석훈)
В ролях: Хван Чжон Мин
Ум Чжун Хва
Ли Хан Ви
Описание: Жена кандидата в мэры Сеула, бросившая из-за него свою давнюю мечту стать певицей, тайно выступает без его ведома, но это только на первый взгляд.
Перевод описания: Grace_Elle
-
Доп. информация:
Перевод фансаб-группа "Мания"
Переводчик и редактор: Grace_Elle
Тайпсеттер: Сана

Релиз: группа "GREEN TEA"
Оформление постера: dusy78

-
Качество: HDTVRip
Формат: MKV
Видео кодек: Другой MPEG4
Аудио кодек: AC3
Видео: 4 820 Kbps, 1280х546, 23.976 fps
Аудио: 48.0 KHz, 192 Kbps, 2 ch
Альтернативная раздача 720х304
ОСТ к фильму Танцующая королева

Скриншоты

MediaInfo

General
Unique ID : 171470687733052834926005771816329902229 (0x81000D9F1A7B9286B63D283D33057895)
Complete name : F:\Фильмы\[GREEN TEA] Танцующая королева_2012_720.mkv
Format : Matroska
Format version : Version 2
File size : 4.36 GiB
Duration : 2h 4mn
Overall bit rate : 5 010 Kbps
Movie name : profile.php?mode=viewprofile&u=22488948
Encoded date : UTC 2014-11-07 14:24:27
Writing application : mkvmerge v5.5.0 ('Healer') built on Apr 6 2012 21:43:24
Writing library : libebml v1.2.3 + libmatroska v1.3.0
Video
ID : 1
Format : AVC
Format/Info : Advanced Video Codec
Format profile : High@L4.1
Format settings, CABAC : Yes
Format settings, ReFrames : 10 frames
Muxing mode : Header stripping
Codec ID : V_MPEG4/ISO/AVC
Duration : 2h 4mn
Bit rate : 4 820 Kbps
Width : 1 280 pixels
Height : 546 pixels
Display aspect ratio : 2.35:1
Frame rate mode : Constant
Frame rate : 23.976 fps
Color space : YUV
Chroma subsampling : 4:2:0
Bit depth : 8 bits
Scan type : Progressive
Bits/(Pixel*Frame) : 0.288
Stream size : 4.11 GiB (94%)
Writing library : x264 core 120 r2146 bcd41db
Encoding settings : cabac=1 / ref=10 / deblock=1:-3:-3 / analyse=0x3:0x113 / me=umh / subme=10 / psy=1 / psy_rd=1.10:0.15 / mixed_ref=1 / me_range=32 / chroma_me=1 / trellis=2 / 8x8dct=1 / cqm=0 / deadzone=21,11 / fast_pskip=0 / chroma_qp_offset=-2 / threads=12 / sliced_threads=0 / nr=0 / decimate=1 / interlaced=0 / bluray_compat=0 / constrained_intra=0 / bframes=6 / b_pyramid=2 / b_adapt=2 / b_bias=0 / direct=3 / weightb=1 / open_gop=0 / weightp=2 / keyint=250 / keyint_min=23 / scenecut=40 / intra_refresh=0 / rc_lookahead=60 / rc=2pass / mbtree=0 / bitrate=4820 / ratetol=1.0 / qcomp=0.60 / qpmin=0 / qpmax=69 / qpstep=4 / cplxblur=20.0 / qblur=0.5 / vbv_maxrate=40000 / vbv_bufsize=30000 / nal_hrd=none / ip_ratio=1.40 / pb_ratio=1.30 / aq=1:0.80
Language : Korean
Default : Yes
Forced : No
Audio
ID : 2
Format : AC-3
Format/Info : Audio Coding 3
Mode extension : CM (complete main)
Format settings, Endianness : Big
Muxing mode : Header stripping
Codec ID : A_AC3
Duration : 2h 4mn
Bit rate mode : Constant
Bit rate : 192 Kbps
Channel(s) : 2 channels
Channel positions : Front: L R
Sampling rate : 48.0 KHz
Bit depth : 16 bits
Compression mode : Lossy
Stream size : 171 MiB (4%)
Title : DVO [GREEN TEA]
Language : Russian
Default : Yes
Forced : No
[Профиль] [ЛС]
Показать сообщения:    
Ответить на тему

Текущее время: Сегодня 02:07

Часовой пояс: GMT



Вы не можете начинать темы
Вы не можете отвечать на сообщения
Вы не можете редактировать свои сообщения
Вы не можете удалять свои сообщения
Вы не можете голосовать в опросах
Вы не можете прикреплять файлы к сообщениям
Вы не можете скачивать файлы