Жалобы на работу трекера ! прошу сюда :)

Дневник Будапешта / Budapest Diary (Чан Гын Сок / Jang Geun Seok) [2011 г., Романтика, психология, короткометражный, DVDRip]

Ответить на тему
 
Автор Сообщение

Амальфи ®

Стаж: 3 года 10 месяцев

Сообщений: 264

Пост 21-Янв-2013 15:14

[Цитировать]

Дневник Будапешта
Budapest Diary
Год выпуска: 2011
Страна: Япония, Южная Корея
Жанр: Романтика, психология, короткометражный
Продолжительность: 00:45:15
Перевод: Одноголосый закадровый Collapse
Режиссер: Чан Гын Сок / Jang Geun Seok
В ролях: Чан Гын Сок / Jang Geun Seok
Описание:
Оставшись один, он совсем потерял голову... Алкоголь, сигареты, возвращение домой под утро - всё это стало привычкой для Кын Сока. Однажды под его дверью был оставлен пакет с дневником той, что свела его с ума. Следуя по страницам дневника за своей любимой, актёр открывает много нового и прекрасного в прекрасной Венгрии, в этом замечательном городе - Будапеште.
Доп. информация:
Релиз: группа "GREEN TEA"
Перевод: фансаб-группа "Альянс"
Координатор проекта: Amalfy
Работа со звуком: pandora2177
Оформление постера: dusy78
Качество: DVDRip
Формат: AVI
Видео кодек: XviD
Аудио кодек: MP3
Видео: XviD, 720*400 (16:9), 23.976 fps, 1189 kbps
Аудио: MP3, 48.0 KHz, 192 kbps, 2 ch

MediaInfo

Формат : AVI
Формат/Информация : Audio Video Interleave
Размер файла : 401 Мбайт
Продолжительность : 40 м.
Общий поток : 1393 Кбит/сек
Программа кодирования : VirtualDubMod 1.5.10.2 (build 2540/release)
Библиотека кодирования : VirtualDubMod build 2540/release
Видео
Идентификатор : 0
Формат : MPEG-4 Visual
Профиль формата : Advanced Simple@L5
Параметр BVOP формата : 1
Параметр QPel формата : Нет
Параметр GMC формата : Без точки перехода
Параметр матрицы формата : Default (H.263)
Идентификатор кодека : XVID
Идентификатор кодека/Подсказка : XviD
Продолжительность : 40 м.
Битрейт : 1189 Кбит/сек
Ширина : 720 пикселей
Высота : 400 пикселей
Соотношение сторон : 16:9
Частота кадров : 29,970 кадров/сек
Цветовое пространство : YUV
Субдискретизация насыщенности : 4:2:0
Битовая глубина : 8 бит
Тип развёртки : Прогрессивная
Метод сжатия : С потерями
Бит/(Пиксели*Кадры) : 0.138
Размер потока : 342 Мбайт (85%)
Библиотека кодирования : XviD 1.2.1 (UTC 2008-12-04)
Аудио
Идентификатор : 1
Формат : MPEG Audio
Версия формата : Version 1
Профиль формата : Layer 3
Режим : Joint stereo
Идентификатор кодека : 55
Идентификатор кодека/Подсказка : MP3
Продолжительность : 40 м.
Вид битрейта : Постоянный
Битрейт : 192 Кбит/сек
Каналы : 2 канала
Частота : 48,0 КГц
Метод сжатия : С потерями
Размер потока : 55,3 Мбайт (14%)
Выравнивание : Соединение по промежуткам
Продолжительность промежутка : 33 мс. (1,00 видеокадр)
Время предзагрузки промежутка : 504 мс.

Скриншот с названием фильма

Скриншоты

[Профиль] [ЛС]

лагуна120

Стаж: 3 года 9 месяцев

Сообщений: 26

Пост 13-Фев-2013 17:37 (спустя 23 дня)

[Цитировать]

Jang Geun Seok красавчик, интересное кино, немного не в том стили, которые смотрю, но интересно и можно задуматься.
[Профиль] [ЛС]

VDN333

Стаж: 3 года 2 месяца

Сообщений: 15

Пост 19-Янв-2014 19:43 (спустя 11 месяцев 6 дней)

[Цитировать]

Нудно...

_________________
VDN333
[Профиль] [ЛС]

sotori

Стаж: 2 года 6 месяцев

Сообщений: 4

Пост 06-Сен-2014 15:08 (спустя 7 месяцев 17 дней)

[Цитировать]

Странный фильм. Всего один актер (он же режиссер, кстати). Слишком короткий, часть сюжета смазана.
Но... оставила в коллекции. Что-то жизнеутверждающее и оптимистичное в нем есть.
[Профиль] [ЛС]

HannaDivas

Стаж: 2 года 1 месяц

Сообщений: 1

Пост 31-Окт-2014 13:35 (спустя 1 месяц 24 дня)

[Цитировать]

nice
[Профиль] [ЛС]

Sofira

Стаж: 2 года 1 месяц

Сообщений: 8

Откуда: Москва

Пост 15-Дек-2014 21:50 (спустя 1 месяц 15 дней)

[Цитировать]

Спасибо огромное-)))))) Приятное дополнения в коллекцию с любимым Соком-)
[Профиль] [ЛС]
Показать сообщения:    
Ответить на тему

Текущее время: Сегодня 02:23

Часовой пояс: GMT



Вы не можете начинать темы
Вы не можете отвечать на сообщения
Вы не можете редактировать свои сообщения
Вы не можете удалять свои сообщения
Вы не можете голосовать в опросах
Вы не можете прикреплять файлы к сообщениям
Вы не можете скачивать файлы