Жалобы на работу трекера ! прошу сюда :)

Убийство в "Восточном экспрессе" / Orient Kyuuko Satsujin Jiken / Murder on the Orient Express (Kono Keita) [2015 г., детектив] [360] DVO GREEN TEA

Ответить на тему
 
Автор Сообщение

dusy78 ®

Стаж: 3 года 10 месяцев

Сообщений: 1005

Откуда: Россия

Пост 04-Сен-2015 13:13

[Цитировать]

Убийство в "Восточном экспрессе"
Orient Kyuuko Satsujin Jiken / Murder on the Orient Express
Год выпуска: 2015
Страна: Япония
Жанр: детектив
Продолжительность: 02/02
Озвучивание: Светлана Дмитриева и Михаил Задорнов
СЕМПЛ: https://yadi.sk/i/QDlNQ3R7isRUf
Режиссер: Kono Keita
В ролях:
Nomura Mansai - Сугуро Такэру
Takahashi Katsumi - Баку
Sasano Takashi - доктор Суда
Ninomiya Kazunari - Макуути Хэйта
Tamaki Hiroshi - граф Андо
Anne - графиня Андо
Sawamura Ikki - Ното Ивао
Matsushima Nanako - Баба Майко
Ikematsu Sosuke - Хадзама Сайскэ
Yagi Akiko - Курэта Соноко
Aoki Sayaka - Хирудэгава Сумико
Fujimoto Takahiro - Хотода Тамио
Fuji Sumiko - госпожа Хатори
Kobayashi Takashi - Масуда Эцудо
Kusabue Mitsuko - Тодороки Нацу
Nishida Toshiyuki - Мики Буити
Sato Koichi - Тодо Осаму
Описание: Адаптация знаменитого детективного романа Агаты Кристи. Известный сыщик Сугуро Такэру возвращается на поезде в Токио после раскрытия очередного дела. Ночью экспресс останавливается из-за завала на путях. А с утра одного из пассажиров находят убитым. Судя по всему, убийца ещё в поезде, и главному герою предстоит найти его.
Доп. информация:
Релиз группы GREEN TEA
Перевод: Светлана Дмитриева
Работа со звуком: Ольга Гринтиева
Оформление постера: Елена Горборукова

Формат: AVI
Видео кодек: XviD
Аудио кодек: MP3
Видео: 640х360, ~1400 Kbps, 29.970 fps
Аудио: 192 Kbps, 48 kHz, 2 ch
Альтернативная раздача 1280x720

Скриншоты

MediaInfo

Format : AVI
Format/Info : Audio Video Interleave
Format profile : OpenDML
File size : 1.64 GiB
Duration : 2h 26mn
Overall bit rate : 1 607 Kbps
Writing application : Lavf52.93.0
Video
ID : 0
Format : xvid
Codec ID : xvid
Duration : 2h 26mn
Bit rate : 1 400 Kbps
Width : 640 pixels
Height : 360 pixels
Display aspect ratio : 16:9
Frame rate : 29.970 fps
Bits/(Pixel*Frame) : 0.203
Stream size : 1.43 GiB (87%)
Audio
ID : 1
Format : MPEG Audio
Format version : Version 1
Format profile : Layer 3
Mode : Joint stereo
Codec ID : 55
Codec ID/Hint : MP3
Duration : 2h 26mn
Bit rate mode : Constant
Bit rate : 192 Kbps
Channel(s) : 2 channels
Sampling rate : 48.0 KHz
Compression mode : Lossy
Stream size : 201 MiB (12%)
Alignment : Aligned on interleaves
Interleave, duration : 24 ms (0.72 video frame)
[Профиль] [ЛС]
Показать сообщения:    
Ответить на тему

Текущее время: Сегодня 16:02

Часовой пояс: GMT



Вы не можете начинать темы
Вы не можете отвечать на сообщения
Вы не можете редактировать свои сообщения
Вы не можете удалять свои сообщения
Вы не можете голосовать в опросах
Вы не можете прикреплять файлы к сообщениям
Вы не можете скачивать файлы