Жалобы на работу трекера ! прошу сюда :)

Убийство в "Восточном экспрессе" / Orient Kyuuko Satsujin Jiken / Murder on the Orient Express (Kono Keita) [2015 г., детектив] [720] DVO GREEN TEA

Ответить на тему
 
Автор Сообщение

dusy78 ®

Стаж: 3 года 10 месяцев

Сообщений: 1005

Откуда: Россия

Пост 04-Сен-2015 13:27

[Цитировать]

Убийство в "Восточном экспрессе"
Orient Kyuuko Satsujin Jiken / Murder on the Orient Express
Год выпуска: 2015
Страна: Япония
Жанр: детектив
Продолжительность: 02 / 02
Озвучивание: Светлана Дмитриева и Михаил Задорнов
СЕМПЛ:https://yadi.sk/i/JFi_MLWJisSKm
Режиссер: Kono Keita
В ролях:
Nomura Mansai - Сугуро Такэру
Takahashi Katsumi - Баку
Sasano Takashi - доктор Суда
Ninomiya Kazunari - Макуути Хэйта
Tamaki Hiroshi - граф Андо
Anne - графиня Андо
Sawamura Ikki - Ното Ивао
Matsushima Nanako - Баба Майко
Ikematsu Sosuke - Хадзама Сайскэ
Yagi Akiko - Курэта Соноко
Aoki Sayaka - Хирудэгава Сумико
Fujimoto Takahiro - Хотода Тамио
Fuji Sumiko - госпожа Хатори
Kobayashi Takashi - Масуда Эцудо
Kusabue Mitsuko - Тодороки Нацу
Nishida Toshiyuki - Мики Буити
Sato Koichi - Тодо Осаму
Описание: Адаптация знаменитого детективного романа Агаты Кристи. Известный сыщик Сугуро Такэру возвращается на поезде в Токио после раскрытия очередного дела. Ночью экспресс останавливается из-за завала на путях. А с утра одного из пассажиров находят убитым. Судя по всему, убийца ещё в поезде, и главному герою предстоит найти его.
Доп. информация:
Релиз группы GREEN TEA
Перевод: Светлана Дмитриева
Работа со звуком: Ольга Гринтиева
Оформление постера: Елена Горборукова

Формат: MKV
Видео кодек: MPEG4
Аудио кодек: MP3
Видео: 3 000 Kbps, 1280х720, 29.970 fps
Аудио: 192 Кбит/с, 48.0 КHz, 2 канала
Альтернативная раздача 640x360

Скриншоты

MediaInfo

Format : Matroska
Format version : Version 2
File size : 3.26 GiB
Duration : 2h 26mn
Overall bit rate : 3 194 Kbps
Encoded date : UTC 2015-06-27 17:22:02
Writing application : mkvmerge v5.5.0 ('Healer') built on Apr 6 2012 21:43:24
Writing library : libebml v1.2.3 + libmatroska v1.3.0
Video
ID : 1
Format : AVC
Format/Info : Advanced Video Codec
Format profile : High@L3.1
Format settings, CABAC : Yes
Format settings, ReFrames : 2 frames
Muxing mode : Header stripping
Codec ID : V_MPEG4/ISO/AVC
Duration : 2h 26mn
Bit rate : 3 000 Kbps
Width : 1 280 pixels
Height : 720 pixels
Display aspect ratio : 16:9
Frame rate mode : Constant
Frame rate : 29.970 fps
Color space : YUV
Chroma subsampling : 4:2:0
Bit depth : 8 bits
Scan type : Progressive
Bits/(Pixel*Frame) : 0.109
Stream size : 3.00 GiB (92%)
Writing library : x264 core 129
Encoding settings : cabac=1 / ref=2 / deblock=1:0:0 / analyse=0x3:0x113 / me=hex / subme=6 / psy=1 / psy_rd=1.00:0.00 / mixed_ref=1 / me_range=16 / chroma_me=1 / trellis=0 / 8x8dct=1 / cqm=0 / deadzone=21,11 / fast_pskip=1 / chroma_qp_offset=-2 / threads=2 / lookahead_threads=1 / sliced_threads=0 / nr=0 / decimate=1 / interlaced=0 / bluray_compat=0 / constrained_intra=0 / bframes=0 / weightp=2 / keyint=250 / keyint_min=25 / scenecut=40 / intra_refresh=0 / rc_lookahead=40 / rc=2pass / mbtree=1 / bitrate=3000 / ratetol=1.0 / qcomp=0.60 / qpmin=10 / qpmax=51 / qpstep=4 / cplxblur=20.0 / qblur=0.5 / ip_ratio=1.41 / aq=1:1.00
Default : Yes
Forced : No
Audio
ID : 2
Format : MPEG Audio
Format version : Version 1
Format profile : Layer 3
Mode : Joint stereo
Muxing mode : Header stripping
Codec ID : A_MPEG/L3
Codec ID/Hint : MP3
Duration : 2h 26mn
Bit rate mode : Constant
Bit rate : 192 Kbps
Channel(s) : 2 channels
Sampling rate : 48.0 KHz
Compression mode : Lossy
Stream size : 201 MiB (6%)
Default : Yes
Forced : No
[Профиль] [ЛС]

ginzboro

Стаж: 1 год 7 месяцев

Сообщений: 48

Откуда: СССР

Пост 06-Сен-2015 16:32 (спустя 2 дня 3 часа)

[Цитировать]

Михаил Задорнов в Грин-Ти озвучивает :) Посмеялся. Надо смотреть.
[Профиль] [ЛС]
Показать сообщения:    
Ответить на тему

Текущее время: Сегодня 16:30

Часовой пояс: GMT



Вы не можете начинать темы
Вы не можете отвечать на сообщения
Вы не можете редактировать свои сообщения
Вы не можете удалять свои сообщения
Вы не можете голосовать в опросах
Вы не можете прикреплять файлы к сообщениям
Вы не можете скачивать файлы