Жалобы на работу трекера ! прошу сюда :)

Школьный дебют / High School Debut (Цутому Ханабуса / Tsutomu Hanabusa) [2011, Япония, комедия, романтика, DVDRip] DVO GREEN TEA & TF-ANIGROUP

Ответить на тему
 
Автор Сообщение

pandora2177 ®

Стаж: 3 года 10 месяцев

Сообщений: 368

Пост 26-Янв-2013 16:45

[Цитировать]

Школьный дебют / High School Debut / 高校デビュー
Страна: Япония
Жанр: комедия, романтика
Год выпуска: 2011
Продолжительность: 01:32:47
Перевод: Двухголосый (закадровый) Nas, Kai
Cубтитры: нет
Режиссер: Цутому Ханабуса / Tsutomu Hanabusa
В ролях:
Мидзобата Джунпей
Оно Ито
Айдзава Рина
Фурукава Юки
Суда Масаки
Окамото Рэй
Описание:
Днем полностью выкладываться на тренировке по софтболу, а вечером читать сёдзё мангу. Такой образ жизни вела Харуна Нагашима пока не перешла в старшую школу. Но мечта стать красивой и найти себе парня не оставила ее. Она старалась узнать секрет привлекательности, читая журналы, покупая одежду, Но, в итоге результат всегда оказывался плачевным, до тех пор, пока Харуна встретила Йо Комияма. Как и в софтболе, в изучении моды ей потребуется тренер. Харуна попросила парня стать ее тренером, но… проблема в том, что он ненавидит девушек. Что же делать? (Korishi)
Фильм основан на манге Кавахары Кадзунэ "Школьный дебют"
Доп. информация:
Релиз: GREEN TEA & TF-ANIGROUP
Перевод: Annyti & Tiris
Работа со звуком: pandora2177
Сэмпл: http://www.mediafire.com/?ipploxf25jfpog7
Качество видео: DVDRip
Формат видео: AVI
Видео: XviD, 720x416 (16:9), 23.98fps, 1 655 Kbps
Аудио: МР3, 192 Kbps, 48000Hz, 2ch

MediaInfo

Формат : AVI
Формат/Информация : Audio Video Interleave
Размер файла : 1,20 Гбайт
Продолжительность : 1 ч. 32 м.
Общий поток : 1857 Кбит/сек
Программа кодирования : VirtualDubMod 1.5.10.2 (build 2540/release)
Библиотека кодирования : VirtualDubMod build 2540/release
Видео
Идентификатор : 0
Формат : MPEG-4 Visual
Профиль формата : Advanced Simple@L5
Параметр BVOP формата : 1
Параметр QPel формата : Нет
Параметр GMC формата : Без точки перехода
Параметр матрицы формата : Выборочная
Идентификатор кодека : XVID
Идентификатор кодека/Подсказка : XviD
Продолжительность : 1 ч. 32 м.
Битрейт : 1655 Кбит/сек
Ширина : 720 пикселей
Высота : 416 пикселей
Соотношение сторон : 16:9
Частота кадров : 23,976 кадра/сек
Цветовое пространство : YUV
Субдискретизация насыщенности : 4:2:0
Битовая глубина : 8 бит
Тип развёртки : Прогрессивная
Метод сжатия : С потерями
Бит/(Пиксели*Кадры) : 0.231
Размер потока : 1,07 Гбайт (89%)
Библиотека кодирования : XviD 64
Аудио
Идентификатор : 1
Формат : MPEG Audio
Версия формата : Version 1
Профиль формата : Layer 3
Режим : Joint stereo
Идентификатор кодека : 55
Идентификатор кодека/Подсказка : MP3
Продолжительность : 1 ч. 32 м.
Вид битрейта : Постоянный
Битрейт : 192 Кбит/сек
Каналы : 2 канала
Частота : 48,0 КГц
Метод сжатия : С потерями
Размер потока : 127 Мбайт (10%)
Выравнивание : Соединение по промежуткам
Продолжительность промежутка : 42 мс. (1,00 видеокадр)
Время предзагрузки промежутка : 504 мс.
Язык : Русский

Скриншот c названием фильма

Скриншоты




[Профиль] [ЛС]

lenivaya10001

Стаж: 3 года 10 месяцев

Сообщений: 16

Пост 18-Фев-2013 03:37 (спустя 22 дня)

[Цитировать]

пощупаем

_________________
верхняя это обиженная нижняя у которой нет хозяина
[Профиль] [ЛС]

lenivaya10002

Стаж: 3 года 9 месяцев

Сообщений: 37

Пост 12-Мар-2013 23:09 (спустя 22 дня)

[Цитировать]

20 минут уже просмотрел... забавно местами... только есть один жирный минус ... и один тощий минус.
Жирный - гг тян - старая(старше чем ее персонаж) актриса играет ученицу, видимо старшей школы, которой, судя по всему , уже есть 16 земных лет, с уровнем психического развития и поведения , как у 6-ти летнего земного мальчика средних способностей, растущего в скромных, но не вредящих, условиях.
Тощий - в озвучке мужского голоса присутствует унитазный эффект, поэтому приходится вслушиваться, но потом привыкаешь...
Женская озвучка - шикос.
Может сведение подкачало.

_________________
верхняя это обиженная нижняя у которой нет хозяина
[Профиль] [ЛС]

lenivaya10002

Стаж: 3 года 9 месяцев

Сообщений: 37

Пост 12-Мар-2013 23:55 (спустя 46 минут)

[Цитировать]

ААА!!!.... МОИ ГЛАЗА!!!!!!!!!! :)))

_________________
верхняя это обиженная нижняя у которой нет хозяина
[Профиль] [ЛС]

Jul

Стаж: 2 года 10 месяцев

Сообщений: 2

Пост 18-Сен-2014 11:16 (спустя 1 год 6 месяцев)

[Цитировать]

Ребятки...дайте раздачу.....хочеться посмотреть)))))
[Профиль] [ЛС]
Показать сообщения:    
Ответить на тему

Текущее время: Сегодня 14:08

Часовой пояс: GMT



Вы не можете начинать темы
Вы не можете отвечать на сообщения
Вы не можете редактировать свои сообщения
Вы не можете удалять свои сообщения
Вы не можете голосовать в опросах
Вы не можете прикреплять файлы к сообщениям
Вы не можете скачивать файлы